Nafas Cinta ( 1999 ) [VCD Rip]

Posted by Filemmelayuretro Admin Monday, June 29, 2009 0 ucapan




http://www.sinemamalaysia.com.my/main/index.php?mod=film&p=info&id=263

Language : Malay
Subtitle : None

Synopsis
Amir goes to Pulau Bayu when his musical contract is not renewed. He was mesmerized with the voice of Suria reading the Quran. Their relationship grows stronger. Suria accept her grandmother sickness due to the tumor. Amir gets nenek to be treated in Kuala Lumpur, and also to promote Suria as a singer.


Nafas Cinta
Format : AVI
Format/Info : Audio Video Interleave
Format/Family : RIFF
File size : 699 MiB
PlayTime : 1h 44mn
Bit rate : 933 Kbps
Video
Codec : XviD
Codec/Family : MPEG-4V
Bit rate : 793 Kbps
Width : 352 pixels
Height : 288 pixels
Display Aspect ratio : 1.222
Frame rate : 29.970 fps
Resolution : 8 bits
Chroma : 4:2:0
Interlacement : Progressive
Audio
Codec : MPEG-1 Audio layer 3
Codec profile : Joint stereo
PlayTime : 1h 44mn
Bit rate mode : CBR
Bit rate : 128 Kbps
Channel(s) : 2 channels
Sampling rate : 44.1 KHz

http://rapidshare.com/files/223682396/NFSCNTA_VCD_Rip_Aryzs_Properties.part1.rar
http://rapidshare.com/files/223696038/NFSCNTA_VCD_Rip_Aryzs_Properties.part2.rar
http://rapidshare.com/files/223707506/NFSCNTA_VCD_Rip_Aryzs_Properties.part3.rar
http://rapidshare.com/files/223723839/NFSCNTA_VCD_Rip_Aryzs_Properties.part4.rar
http://rapidshare.com/files/223735394/NFSCNTA_VCD_Rip_Aryzs_Properties.part5.rar
http://rapidshare.com/files/223745310/NFSCNTA_VCD_Rip_Aryzs_Properties.part6.rar
http://rapidshare.com/files/223759986/NFSCNTA_VCD_Rip_Aryzs_Properties.part7.rar
http://rapidshare.com/files/223937477/NFSCNTA_VCD_Rip_Aryzs_Properties.part8.rar

No Password

Mukhsin (2007) [VCD Rip]

Posted by Filemmelayuretro Admin 1 ucapan






http://www.sinemamalaysia.com.my/main/index.php?mod=film&p=info&id=422

Language : Malay
Subtitle : Malay Hard-Subb

Sinopsis
Setiap insan mesti mempunyai cerita mereka tersendiri tentang cinta pertama merekka. Cerita ini mengisahkan kisah cinta Mukhsin dan Orked apabila dia berumur 12 tahun dan Orked 10 tahun. Kali pertama mukhsin melihat Orked ialah pada masa dia bermain air hujan. Pada saat itu hatinya sudah terpaut pada Orked. Orked bukan seperti budak perempuan lain dalam kampung itu. Dia berlajar di sekolah Sekolah Jenis Kebangsaan Cina dan bertutur dalam bahasa Inggeris. Dia lebih gemar membaca dari bermain bersama rakan seumurnya. Dia dilayan seperti orang luar di dalam kampungnya. Tapi segalanya berubah apabila kehadiran Mukhsin yang baru pindah di kampung itu telah memberikan suatu erti bagi Orked untuk menghargai kehidupan dan mengenal erti cinta pada ketika itu. Persahabatan mereka menjadi lebih akrab hari demi hari. Tetapi perasaan yang terpendam lama di dalam hati Mukhsin untuk meluahkan isi hatinya sebenar pada Orked selalu ditangguh-tangguhkan. Adakah masih sempat bagi Mukhsin untuk mengungkapkan kata hati kepada Orked?


Mukhsin
Format : AVI
Format/Info : Audio Video Interleave
File size : 578 MiB
Duration : 1h 34mn
Overall bit rate : 859 Kbps
Writing library : MPlayer
Video
Format : MPEG-4 Visual
Bit rate : 726 Kbps
Width : 352 pixels
Height : 288 pixels
Display aspect ratio : 4/3
Frame rate : 23.976 fps
Resolution : 8 bits
Colorimetry : 4:2:0
Scan type : Progressive
Bits/(Pixel*Frame) : 0.299
Audio
Format : MPEG Audio
Format version : Version 1
Format profile : Layer 3
Codec ID : 55
Codec ID/Hint : MP3
Duration : 1h 34mn
Bit rate mode : Constant
Bit rate : 128 Kbps
Channel(s) : 2 channels
Sampling rate : 44.1 KHz
Resolution : 16 bits
Stream size : 86.1 MiB (15%)
Alignment : Split accross interleaves
Interleave, duration : 500 ms (11.99 video frames)
Interleave, preload duration : 500 ms




http://rapidshare.com/files/191423504/MKHSN_VCD_Rip_Aryzs_Properties.part1.rar
http://rapidshare.com/files/191427998/MKHSN_VCD_Rip_Aryzs_Properties.part2.rar
http://rapidshare.com/files/191429375/MKHSN_VCD_Rip_Aryzs_Properties.part3.rar
http://rapidshare.com/files/191446283/MKHSN_VCD_Rip_Aryzs_Properties.part4.rar
http://rapidshare.com/files/191452671/MKHSN_VCD_Rip_Aryzs_Properties.part5.rar
http://rapidshare.com/files/191453115/MKHSN_VCD_Rip_Aryzs_Properties.part6.rar

No Password

MR Os (1986) [DVD Rip]

Posted by Filemmelayuretro Admin 6 ucapan





http://www.filemkita.com/filem/m/mr_os_01.html

Language : Malay
Sunbtitle : None


MR Os
Format : AVI
Format/Info : Audio Video Interleave
File size : 527 MiB
Duration : 1h 29mn
Overall bit rate : 828 Kbps
Writing library : MPlayer
Video
Format : MPEG-4 Visual
Bit rate : 694 Kbps
Width : 352 pixels
Height : 288 pixels
Display aspect ratio : 1.086
Frame rate : 23.976 fps
Resolution : 8 bits
Colorimetry : 4:2:0
Scan type : Progressive
Bits/(Pixel*Frame) : 0.286
Audio
Format : MPEG Audio
Format version : Version 1
Format profile : Layer 3
Codec ID : 55
Codec ID/Hint : MP3
Duration : 1h 29mn
Bit rate mode : Constant
Bit rate : 128 Kbps
Channel(s) : 2 channels
Sampling rate : 44.1 KHz
Resolution : 16 bits
Stream size : 81.5 MiB (15%)
Alignment : Split accross interleaves
Interleave, duration : 500 ms (11.99 video frames)
Interleave, preload duration : 500 ms



http://rapidshare.com/files/190965069/MROS_DVD_Rip_Aryzs_Properties.part1.rar
http://rapidshare.com/files/190970264/MROS_DVD_Rip_Aryzs_Properties.part2.rar
http://rapidshare.com/files/190970454/MROS_DVD_Rip_Aryzs_Properties.part3.rar
http://rapidshare.com/files/191047452/MROS_DVD_Rip_Aryzs_Properties.part4.rar
http://rapidshare.com/files/191061985/MROS_DVD_Rip_Aryzs_Properties.part5.rar
http://rapidshare.com/files/190959302/MROS_DVD_Rip_Aryzs_Properties.part6.rar

No Password

Lurah Dendam ( 1996 ) [DVD Rip]

Posted by Filemmelayuretro Admin Sunday, June 28, 2009 1 ucapan



http://www.sinemamalaysia.com.my/main/index.php?mod=film&p=info&id=228

Language : Malay
Subtitle : None

Synopsis
While out on a test flight, accident strikes and the group of parachuters, led by Captain Hanafi soon find themselves stranded in the middle of nowhere, far from civilization. One of the team members, Ivy is missing and when the only trace they found is a piece of her clothing, tension arises among the group. Many blames Captain Hanafi for the misfortune. In their search for Ivy, the group stumbles upon a mystery in the jungle. Soon peculiar events happen and one by one of them goes missing. Will they be able to survive under these challenging circumstances and get to the root of the mystery? Or could betrayal and revenge be the cause?


Lurah Dendam.
Format : AVI
Format/Info : Audio Video Interleave
Format/Family : RIFF
File size : 699 MiB
PlayTime : 1h 33mn
Bit rate : 1044 Kbps
StreamSize/String : 9.30 MiB
Video
Codec : XviD
Bit rate : 909 Kbps
Width : 432 pixels
Height : 320 pixels
Display Aspect ratio : 4/3
Frame rate : 29.970 fps
Resolution : 8 bits
Chroma : 4:2:0
Audio
Codec : MPEG-1 Audio layer 3
Codec profile : Joint stereo
PlayTime : 1h 33mn
Bit rate mode : VBR
Bit rate : 120 Kbps
Minimum bit rate : 128 Kbps
Channel(s) : 2 channels
Sampling rate : 48.0 KHz
Resolution : 16 bits
StreamSize/String : 80.6 MiB
Writing library : LAME3.97
Encoding settings : ABR

http://i674.photobucket.com/albums/vv107/aryzss2/DVD%20Cover/Logo/Download-2.gif


http://rapidshare.com/files/230591911/LRHDNDM_DVD_Rip_Aryzs_Properties.part1.rar
http://rapidshare.com/files/230596318/LRHDNDM_DVD_Rip_Aryzs_Properties.part2.rar
http://rapidshare.com/files/230774663/LRHDNDM_DVD_Rip_Aryzs_Properties.part3.rar
http://rapidshare.com/files/230686232/LRHDNDM_DVD_Rip_Aryzs_Properties.part4.rar
http://rapidshare.com/files/230636667/LRHDNDM_DVD_Rip_Aryzs_Properties.part5.rar
http://rapidshare.com/files/230782709/LRHDNDM_DVD_Rip_Aryzs_Properties.part6.rar
http://rapidshare.com/files/230686226/LRHDNDM_DVD_Rip_Aryzs_Properties.part7.rar
http://rapidshare.com/files/230686228/LRHDNDM_DVD_Rip_Aryzs_Properties.part8.rar

No Password

Lenjan ( 1998 ) [VCD Rip]

Posted by Filemmelayuretro Admin Saturday, June 27, 2009 4 ucapan




http://www.sinemamalaysia.com.my/main/index.php?mod=film&p=info&id=245

Language : Malay
Subtitle : None

Synopsis
Amir, is a successful entrepreneur and finally understands the meaning of true love after marrying Zita. To Amir, Zita is everything a man could ask for in a woman, she is loving, tender and every men’s dream. While on a holiday, Amir saves Zarin who is injured. Unknown to Amir, Zarin is a cunning and ruthless rapist cum murderer who has an ulterior motive on his wife to fulfill his devilish passion. Will Zita be able to save herself from the psychopathic Zarin? Or will lust prevail over true love?


Lenjan
Format : AVI
Format/Info : Audio Video Interleave
Format/Family : RIFF
File size : 708 MiB
PlayTime : 1h 34mn
Bit rate : 1052 Kbps
Video
Codec : XviD
Codec/Family : MPEG-4V
Bit rate : 913 Kbps
Width : 384 pixels
Height : 288 pixels
Display Aspect ratio : 4/3
Frame rate : 29.970 fps
Resolution : 8 bits
Chroma : 4:2:0
Interlacement : Progressive
Audio
Codec : MPEG-1 Audio layer 3
Codec profile : Joint stereo
PlayTime : 1h 34mn
Bit rate mode : CBR
Bit rate : 128 Kbps
Channel(s) : 2 channels
Sampling rate : 44.1 KHz
Resolution : 16 bits

http://rapidshare.com/files/223586024/LNJN_VCD_Rip_Aryzs_Properties.part1.rar
http://rapidshare.com/files/223591339/LNJN_VCD_Rip_Aryzs_Properties.part2.rar
http://rapidshare.com/files/223615825/LNJN_VCD_Rip_Aryzs_Properties.part3.rar
http://rapidshare.com/files/223626787/LNJN_VCD_Rip_Aryzs_Properties.part4.rar
http://rapidshare.com/files/223632163/LNJN_VCD_Rip_Aryzs_Properties.part5.rar
http://rapidshare.com/files/223655388/LNJN_VCD_Rip_Aryzs_Properties.part6.rar
http://rapidshare.com/files/223666463/LNJN_VCD_Rip_Aryzs_Properties.part7.rar
http://rapidshare.com/files/223672105/LNJN_VCD_Rip_Aryzs_Properties.part8.rar

No Password

Leftenan Adnan ( 2000 ) [ DVD Rip ]

Posted by Filemmelayuretro Admin Friday, June 26, 2009 0 ucapan



http://www.sinemamalaysia.com.my/main/index.php?mod=film&p=info&id=21

Language : Malay
Subtitle : None

Synopsis
This is a film about a Malaysian soldier, Lt. Adnan, who gave his life in defending Malaya from the Japanese invasion during World War II. It exemplifies an example of the patriotic spirit that should be in every Malaysian. Lt. Adnan was a courageous individual who was willing to give everything, including his life, for the people and nation. He also succeeded in destroying the widely held myth that Malays were good only as rebels and pirates. He believed that no matter what, as a patriotic citizen, one had to fight until the last drop of blood to defend the nation.


Leftenan Adnan
Format : AVI
Format/Info : Audio Video Interleave
File size : 699 MiB
Duration : 1h 55mn
Overall bit rate : 847 Kbps
Video
Format : MPEG-4 Visual
Bit rate : 722 Kbps
Width : 608 pixels
Height : 256 pixels
Display aspect ratio : 2.35
Frame rate : 29.970 fps
Resolution : 8 bits
Colorimetry : 4:2:0
Scan type : Progressive
Audio
Format : MPEG Audio
Format version : Version 1
Format profile : Layer 3
Codec ID : 55
Codec ID/Hint : MP3
Duration : 1h 55mn
Bit rate mode : Variable
Bit rate : 111 Kbps
Minimum bit rate : 128 Kbps
Channel(s) : 2 channels
Sampling rate : 48.0 KHz
Resolution : 16 bits
Writing library : LAME3.97
Encoding settings : ABR


http://i674.photobucket.com/albums/vv107/aryzss2/DVD%20Cover/Logo/Download-2.gif


http://rapidshare.com/files/235205533/LFTNADNN_DVD_Rip_Aryzs_Properties.part1.rar
http://rapidshare.com/files/235243964/LFTNADNN_DVD_Rip_Aryzs_Properties.part2.rar
http://rapidshare.com/files/235245360/LFTNADNN_DVD_Rip_Aryzs_Properties.part3.rar
http://rapidshare.com/files/235248182/LFTNADNN_DVD_Rip_Aryzs_Properties.part4.rar
http://rapidshare.com/files/235252902/LFTNADNN_DVD_Rip_Aryzs_Properties.part5.rar
http://rapidshare.com/files/235289446/LFTNADNN_DVD_Rip_Aryzs_Properties.part6.rar
http://rapidshare.com/files/235291802/LFTNADNN_DVD_Rip_Aryzs_Properties.part7.rar
http://rapidshare.com/files/235293144/LFTNADNN_DVD_Rip_Aryzs_Properties.part8.rar

No Password

Man Laksa (2006) [VCD Rip]

Posted by Filemmelayuretro Admin Thursday, June 25, 2009 0 ucapan

Man Laksa (2006) [VCD Rip]







http://www.filemkita.com/filem/m/man_laksa_01.html

Language : Malay
Subtitle : None

Man Laksa
Format : AVI
File size : 515 MiB
PlayTime : 1h 52mn
Bit rate : 642 Kbps
Video
Codec : DivX 5
Bit rate : 509 Kbps
Width : 352 pixels
Height : 288 pixels
Display Aspect ratio : 4/3
Frame rate : 23.976 fps
Resolution : 8 bits
Chroma : 4:2:0
Interlacement : Progressive
Bits/(Pixel*Frame) : 0.209
StreamSize/String : 408 MiB
Writing library : Lavc51.50.1
Audio
Codec : MPEG-1 Audio layer 3
Codec profile : Joint stereo
PlayTime : 1h 52mn
Bit rate mode : CBR
Bit rate : 128 Kbps
Channel(s) : 2 channels
Sampling rate : 44.1 KHz
Resolution : 16 bits
StreamSize/String : 103 MiB





http://rapidshare.com/files/187300937/MNLKSA_VCD_Rip_Aryzs_Properties.part1.rar
http://rapidshare.com/files/187331563/MNLKSA_VCD_Rip_Aryzs_Properties.part2.rar
http://rapidshare.com/files/187369611/MNLKSA_VCD_Rip_Aryzs_Properties.part3.rar
http://rapidshare.com/files/187602127/MNLKSA_VCD_Rip_Aryzs_Properties.part4.rar
http://rapidshare.com/files/187623885/MNLKSA_VCD_Rip_Aryzs_Properties.part5.rar
http://rapidshare.com/files/187651201/MNLKSA_VCD_Rip_Aryzs_Properties.part6.rar

No Password

Mama Oh Mama [DVD Rip]

Posted by Filemmelayuretro Admin 1 ucapan




Language : Malay
Subtitle : None

Mama Oh Mama
Format : AVI
File size : 697 MiB
PlayTime : 1h 35mn
Bit rate : 1009 Kbps
Video #0
Codec : XviD
Codec/Family : MPEG-4
Bit rate : 919 Kbps
Width : 704 pixels
Height : 304 pixels
Display Aspect ratio : 2.35
Frame rate : 29.970 fps
Resolution : 8 bits
Chroma : 4:2:0
Interlacement : Progressive
Bits/(Pixel*Frame) : 0.142
StreamSize : 630 MiB
Audio #1
Codec : MPEG-1 Audio layer 3
Codec profile : Joint stereo
PlayTime : 1h 35mn
Bit rate : 83 Kbps
Bit rate mode : VBR
Channel(s) : 2 channels
Sampling rate : 32 KHz
Resolution : 16 bits
StreamSize : 57.1 MiB
Writing library : LAME3.97
Encoding settings : ABR


http://rapidshare.com/files/122760965/MOM_DVD_Rip_Aryzs_Properties.part1.rar
http://rapidshare.com/files/122763227/MOM_DVD_Rip_Aryzs_Properties.part2.rar
http://rapidshare.com/files/122819898/MOM_DVD_Rip_Aryzs_Properties.part3.rar
http://rapidshare.com/files/122970468/MOM_DVD_Rip_Aryzs_Properties.part4.rar
http://rapidshare.com/files/122863901/MOM_DVD_Rip_Aryzs_Properties.part5.rar
http://rapidshare.com/files/122898078/MOM_DVD_Rip_Aryzs_Properties.part6.rar
http://rapidshare.com/files/122819608/MOM_DVD_Rip_Aryzs_Properties.part7.rar
http://rapidshare.com/files/122755471/MOM_DVD_Rip_Aryzs_Properties.part8.rar

PASSWORD : aryzs properties

Kad Cinta (1995) [DVD Rip]

Posted by Filemmelayuretro Admin 0 ucapan





http://www.sinemamalaysia.com.my/main/index.php?mod=film&p=info&id=199

Language : Malay
Subtitle : None



Kad Cinta
Format : AVI
File size : 699 MiB
Duration : 1h 33mn
Overall bit rate : 1044 Kbps
Video
Format : MPEG-4 Visual
Bit rate : 924 Kbps
Width : 512 pixels
Height : 384 pixels
Display aspect ratio : 4/3
Frame rate : 29.970 fps
Resolution : 8 bits
Colorimetry : 4:2:0
Scan type : Progressive
Bits/(Pixel*Frame) : 0.157
Stream size : 619 MiB (89%)
Audio
Format : MPEG Audio
Format version : Version 1
Format profile : Layer 3
Codec ID : 55
Codec ID/Hint : MP3
Duration : 1h 33mn
Bit rate mode : Variable
Bit rate : 106 Kbps
Minimum bit rate : 128 Kbps
Channel(s) : 2 channels
Sampling rate : 48.0 KHz
Resolution : 16 bits
Stream size : 70.7 MiB (10%)
Alignment : Aligned on interleaves
Interleave, duration : 24 ms (0.72 video frame)
Interleave, preload duration : 515 ms
Writing library : LAME3.97
Encoding settings : ABR




http://rapidshare.com/files/190164986/KDCTA_DVD_Rip_Aryzs_Properties.part1.rar
http://rapidshare.com/files/190166542/KDCTA_DVD_Rip_Aryzs_Properties.part2.rar
http://rapidshare.com/files/190191212/KDCTA_DVD_Rip_Aryzs_Properties.part3.rar
http://rapidshare.com/files/190210797/KDCTA_DVD_Rip_Aryzs_Properties.part4.rar
http://rapidshare.com/files/190214941/KDCTA_DVD_Rip_Aryzs_Properties.part5.rar
http://rapidshare.com/files/190240971/KDCTA_DVD_Rip_Aryzs_Properties.part6.rar
http://rapidshare.com/files/190261761/KDCTA_DVD_Rip_Aryzs_Properties.part7.rar
http://rapidshare.com/files/190266577/KDCTA_DVD_Rip_Aryzs_Properties.part8.rar

No Password

Jutawan Fakir ( 2003 ) [ VCD Rip ] [ Rapidshare Links ]

Posted by Filemmelayuretro Admin Wednesday, June 24, 2009 1 ucapan





http://www.sinemamalaysia.com.my/main/jutawan_fakir

Language : Malay
Subtitle : None

Synopsis
Fakir Bin Miskin works as an office boy in a company in the city. A comical character with a good heart, Fakir is well liked by his colleagues at work, though occasionally gullible as his girlfriend, Zura, is always sucking his money dry. One day he stumbles upon a bag of money, which leaves him feeling undoubtedly fortunate. From then on, Fakir's life becomes a breeze. He no longer is bogged down with debts, and his girlfriend no longer looks down on him. He even donates his money to the needy. But he soon finds out that the money he found was actually stolen. Disturbed, Fakir begins a quest of returning the stolen money to its rightful owner.

Jutawan.Fakir.2003.VCDRip.XviD-arYzs
Format : AVI
Format/Info : Audio Video Interleave
File size : 728 MiB
Duration : 1h 23mn
Overall bit rate : 1214 Kbps
Writing library : MPlayer
Video
Format : MPEG-4 Visual
Bit rate : 1081 Kbps
Width : 352 pixels
Height : 288 pixels
Display aspect ratio : 4/3
Frame rate : 23.976 fps
Resolution : 8 bits
Colorimetry : 4:2:0
Scan type : Progressive
Audio
Format : MPEG Audio
Format version : Version 1
Format profile : Layer 3
Codec ID : 55
Codec ID/Hint : MP3
Duration : 1h 23mn
Bit rate mode : Constant
Bit rate : 128 Kbps
Channel(s) : 2 channels
Sampling rate : 44.1 KHz
Resolution : 16 bits

http://rapidshare.com/files/247937148/Jutawan.Fakir.2003.VCDRip.XviD-arYzs.part1.rar
http://rapidshare.com/files/247937181/Jutawan.Fakir.2003.VCDRip.XviD-arYzs.part2.rar
http://rapidshare.com/files/247937064/Jutawan.Fakir.2003.VCDRip.XviD-arYzs.part3.rar
http://rapidshare.com/files/247938047/Jutawan.Fakir.2003.VCDRip.XviD-arYzs.part4.rar
http://rapidshare.com/files/248074810/Jutawan.Fakir.2003.VCDRip.XviD-arYzs.part5.rar
http://rapidshare.com/files/248077763/Jutawan.Fakir.2003.VCDRip.XviD-arYzs.part6.rar
http://rapidshare.com/files/248079351/Jutawan.Fakir.2003.VCDRip.XviD-arYzs.part7.rar
http://rapidshare.com/files/248083001/Jutawan.Fakir.2003.VCDRip.XviD-arYzs.part8.rar
No Password

Setinggan ( 1981 ) [VCD Rip]

Posted by Filemmelayuretro Admin 2 ucapan




http://www.sinemamalaysia.com.my/main/index.php?mod=film&p=info&id=284

Language : Malay
Subtitle : None

Synopsis
The residents of a squatter village are disturbed by ghosts of Japanese soldiers who dies in the Second World of War and buried in the sea. Amongst the villagers are Pak Sudin, Burn and a divorce with three children. Prior to this, the village which is built on an old Japanese army graveyard was peaceful and the residents were very cooperative. Of late, more and more ghosts begin to appear to haunt the villagers.


Setinggan
Format : AVI
Format/Info : Audio Video Interleave
Format/Family : RIFF
File size : 393 MiB
PlayTime : 1h 43mn
Bit rate : 529 Kbps
Video
Codec : XviD
Codec/Family : MPEG-4V
Bit rate : 396 Kbps
Width : 352 pixels
Height : 288 pixels
Display Aspect ratio : 4/3
Frame rate : 25.000 fps
Resolution : 8 bits
Chroma : 4:2:0
Interlacement : Progressive
Audio
Codec : MPEG-1 Audio layer 3
Codec profile : Joint stereo
PlayTime : 1h 43mn
Bit rate mode : CBR
Bit rate : 128 Kbps
Channel(s) : 2 channels
Sampling rate : 44.1 KHz
Resolution : 16 bits
StreamSize/String : 95.1 MiB


http://rapidshare.com/files/203973665/STTGGN_VCD_Rip_Aryzs_Properties.part1.rar
http://rapidshare.com/files/203973749/STTGGN_VCD_Rip_Aryzs_Properties.part2.rar
http://rapidshare.com/files/203973751/STTGGN_VCD_Rip_Aryzs_Properties.part3.rar
http://rapidshare.com/files/204015871/STTGGN_VCD_Rip_Aryzs_Properties.part4.rar
http://rapidshare.com/files/204015970/STTGGN_VCD_Rip_Aryzs_Properties.part5.rar

No Password

Jogho (1999) [VCD Rip]

Posted by Filemmelayuretro Admin Tuesday, June 23, 2009 3 ucapan

Jogho (1999) [VCD Rip]







http://www.filemkita.com/filem/j/jogho_01.html

Language : Malay ( Kelantanese )
Subtitle : English Hard-Subb

Synopsis
Mamat is a native of Kelantan, Malaysia, but he had left Malaysia many years earlier to join his brother Lazim in South Thailand in order to continue making his living as a trainer of fighting bulls (a Jogho). The practice had been outlawed in Malaysia but continued in Thailand. Mamat lives with his wife and three daughters, three divorcees and one who has not yet married, but he has sent his only son to boarding school in Kelantan. Mamat and Lazim are the leaders in a small village that depends mostly on the money won from gambling in bullfights for its sustenance. The story begins when Lazim is killed by Isa at the bullfighting arena. By tradition, this leaves Mamat and the young men the responsibility of taking revenge and thus preserving the honor of the village. Mamat visits Kelantan and arranges for his friend Jaafar to find and kill the perpetrators. Returning home, Mamat is gored by his new bull and is bedridden for several days. At the same time Lazim's two sons and a friend have gone into the town and managed to kill Isa's son Hamdan and his assistant Dollah Munduk. After the killing, the young men hide and Mamat is arrested by the Thai police, leaving the women alone to manage not only the village affairs but also to care for the bull. From the jail, Mamat pleads with his wife to pay the bail so that he will be able to fight the new bull. He is at last freed on the morning of the bullfight. At the bullfighting arena, Isa comes to avenge the death of his son. Isa shoots Mamat but miraculously misses his first shot and the second shot only manages to wound Mamat in the shoulder. Mamat wrestles the gun from Isa and knocks him to the ground. Now Mamat has the chance to kill Isa and avenge the death of Lazim, but Mamat refuses as he has become tired of Malays killing Malays. He lowers the pistol. But Lazim's son Sani grabs the gun and shoots Isa instead. The police come and Mamat surrenders himself to them, taking the responsibility for the murder. Although Mamat is taken away by the Thai police, the cycle of violence within the Malay community continues.


Jogho
Format : AVI
Format/Info : Audio Video Interleave
File size : 738 MiB
Duration : 1h 31mn
Overall bit rate : 1126 Kbps
Writing library : MPlayer
Video
Format : MPEG-4 Visual
Bit rate : 993 Kbps
Width : 352 pixels
Height : 288 pixels
Display aspect ratio : 4/3
Frame rate : 23.976 fps
Resolution : 8 bits
Colorimetry : 4:2:0
Scan type : Progressive
Bits/(Pixel*Frame) : 0.408
Audio
Format : MPEG Audio
Format version : Version 1
Format profile : Layer 3
Codec ID : 55
Codec ID/Hint : MP3
Duration : 1h 31mn
Bit rate mode : Constant
Bit rate : 128 Kbps
Channel(s) : 2 channels
Sampling rate : 44.1 KHz
Resolution : 16 bits
Stream size : 83.9 MiB (11%)
Alignment : Split accross interleaves
Interleave, duration : 500 ms (11.99 video frames)
Interleave, preload duration : 500 ms



http://rapidshare.com/files/190891953/JGHO_VCD_Rip_Aryzs_Properties.part1.rar
http://rapidshare.com/files/190906830/JGHO_VCD_Rip_Aryzs_Properties.part2.rar
http://rapidshare.com/files/190914871/JGHO_VCD_Rip_Aryzs_Properties.part3.rar
http://rapidshare.com/files/190921633/JGHO_VCD_Rip_Aryzs_Properties.part4.rar
http://rapidshare.com/files/190933951/JGHO_VCD_Rip_Aryzs_Properties.part5.rar
http://rapidshare.com/files/190941118/JGHO_VCD_Rip_Aryzs_Properties.part6.rar
http://rapidshare.com/files/190947199/JGHO_VCD_Rip_Aryzs_Properties.part7.rar
http://rapidshare.com/files/190885119/JGHO_VCD_Rip_Aryzs_Properties.part8.rar

No Password

Jangan Pandang Belakang (2007) [DVD Rip English Subtitle]

Posted by Filemmelayuretro Admin Monday, June 22, 2009 0 ucapan





http://www.imdb.com/title/tt1069259/

Synopsis
Darma (Pierre Andre) is traumatised by the mysterious death of his fiancee, Rose (Intan Ladyana). Not satisfied with her unexplained death, Darma decides to investigate the case with the help of Rose's twin sister, Seri, (also played by Intan Ladyana). As they probe into the death, a series of strange occurrences start to unravel, leaving Darma in a disturbed state of mind that affects his life and career. When he is advised to take a week's break from work, he returns to his hometown to rest. Unknown to him, he is only getting closer to solving his fiancee's death and the truth behind the strange happenings.


Jangan Pandang Belakang
Format : AVI
Format/Info : Audio Video Interleave
File size : 700 MiB
Duration : 1h 34mn
Overall bit rate : 1040 Kbps
Video
Format : MPEG-4 Visual
Bit rate : 913 Kbps
Width : 576 pixels
Height : 336 pixels
Display aspect ratio : 16/9
Frame rate : 25.000 fps
Resolution : 8 bits
Colorimetry : 4:2:0
Scan type : Progressive
Bits/(Pixel*Frame) : 0.189
Audio
Format : MPEG Audio
Format version : Version 1
Format profile : Layer 3
Codec ID : 55
Codec ID/Hint : MP3
Duration : 1h 34mn
Bit rate mode : Variable
Bit rate : 114 Kbps
Minimum bit rate : 128 Kbps
Channel(s) : 2 channels
Sampling rate : 48.0 KHz
Resolution : 16 bits
Stream size : 76.8 MiB (11%)
Alignment : Aligned on interleaves
Interleave, duration : 24 ms (0.60 video frame)
Interleave, preload duration : 545 ms
Writing library : LAME3.97
Encoding settings : ABR



http://rapidshare.com/files/189234064/JGNPNDGBLKG_DVD_Rip_ENG_HRDSUBB_Aryzs.part1.rar
http://rapidshare.com/files/189235323/JGNPNDGBLKG_DVD_Rip_ENG_HRDSUBB_Aryzs.part2.rar
http://rapidshare.com/files/189271990/JGNPNDGBLKG_DVD_Rip_ENG_HRDSUBB_Aryzs.part3.rar
http://rapidshare.com/files/189281146/JGNPNDGBLKG_DVD_Rip_ENG_HRDSUBB_Aryzs.part4.rar
http://rapidshare.com/files/189282506/JGNPNDGBLKG_DVD_Rip_ENG_HRDSUBB_Aryzs.part5.rar
http://rapidshare.com/files/189320096/JGNPNDGBLKG_DVD_Rip_ENG_HRDSUBB_Aryzs.part6.rar
http://rapidshare.com/files/189328844/JGNPNDGBLKG_DVD_Rip_ENG_HRDSUBB_Aryzs.part7.rar
http://rapidshare.com/files/189223713/JGNPNDGBLKG_DVD_Rip_ENG_HRDSUBB_Aryzs.part8.rar

No Password

Jejaka Perasan ( 1987 ) [ XVID TV ]

Posted by Filemmelayuretro Admin Sunday, June 21, 2009 0 ucapan




http://www.filemkita.com/filem/j/jejaka_perasan_01.html

Language : Malay
Subtitle : None


Jejaka Perasan
Format : AVI
Format/Info : Audio Video Interleave
Format/Family : RIFF
File size : 700 MiB
PlayTime : 1h 36mn
Bit rate : 1012 Kbps
Video
Codec : XviD
Bit rate : 895 Kbps
Width : 528 pixels
Height : 400 pixels
Display Aspect ratio : 4/3
Frame rate : 25.000 fps
Resolution : 8 bits
Chroma : 4:2:0
Interlacement : Progressive
Audio
Codec : MPEG-1 Audio layer 3
Codec profile : Joint stereo
PlayTime : 1h 36mn
Bit rate mode : VBR
Bit rate : 104 Kbps
Minimum bit rate : 128 Kbps
Channel(s) : 2 channels
Sampling rate : 48.0 KHz
Resolution : 16 bits
StreamSize/String : 72.2 MiB
Writing library : LAME3.97
Encoding settings : ABR

http://rapidshare.com/files/224616243/JJKPRSAN_XVID_Aryzs_Properties.part1.rar
http://rapidshare.com/files/224616238/JJKPRSAN_XVID_Aryzs_Properties.part2.rar
http://rapidshare.com/files/224616237/JJKPRSAN_XVID_Aryzs_Properties.part3.rar
http://rapidshare.com/files/224639675/JJKPRSAN_XVID_Aryzs_Properties.part4.rar
http://rapidshare.com/files/224639909/JJKPRSAN_XVID_Aryzs_Properties.part5.rar
http://rapidshare.com/files/224639907/JJKPRSAN_XVID_Aryzs_Properties.part6.rar
http://rapidshare.com/files/224661823/JJKPRSAN_XVID_Aryzs_Properties.part7.rar
http://rapidshare.com/files/224662003/JJKPRSAN_XVID_Aryzs_Properties.part8.rar

No Password

Puteri Gunung Ledang ( 2004 ) [VCD Rip]

Posted by Filemmelayuretro Admin Saturday, June 20, 2009 5 ucapan



http://www.sinemamalaysia.com.my/main/index.php?mod=film&p=info&id=5

Language : Malay
Subtitle : English

Synopsis
Puteri Gunung Ledang is a love story taking place in 15th century Malacca. The story begins when Princess Gusti sails away from her war torn homeland in search of her love, Admiral Hang Tuah, in Malacca. There, she waits for him at Gunung Ledang. But her brother, Gusti Adipati, has plans to marry her off to Pangeran Demak, in the hopes that Demak would stop his attacks on their homeland of Majapahit. Discovering that his sister had fled to Malacca, Gusti Adipati follows suit, and offers her to the Sultan of Malacca, Sultan Mahmud, in the bid that the Sultan will protect them from the attacks of the Pangeran Demak. The Sultan, who already has a wife, agrees to take on a second. Princess Gusti, upon receiving this news, decides to return to their homeland and marry Demak, for she cannot bear the thought of staying in Malacca without her true love. Her wishes are not granted, and preparations for her wedding to the Sultan are underway. Hang Tuah, upon receiving the news of the impending wedding carries on his loyal duties, for his loyalty lies strongly with the Sultan and the State. He leads a party up the challenging Gunung Ledang to ask Princess Gusti for her hand in marriage, on behalf of the Sultan. Hurt and angry, Princess Gusti agrees to the marriage, on the condition that the Sultan grants her seven wishes. Adipati witnesses the exchange between Hang Tuah and his sister, and attacks Hang Tuah. The Admiral manages to beat him, and becomes confused over his actions. Hang Tuah promises to remain at Gunung Ledang forever because of this. Meanwhile, the Sultan is able to grant the Princess six wishes. In the final wish, the Sultan has to drive a keris into his own son's flesh to get a bowl of blood. Before he is about to drive the keris, Princess Gusti appears and rebukes him. The Sultan, hurt and angry, casts a curse on the Princess to live at Gunung Ledang, never to be seen by another human being again. Hang Tuah, upon learning of the curse, rushes to Gunung Ledang to see his love for the last time. Alas, it was too late. Their love story remains a great legend till this day.


Puteri Gunung Ledang
Format : AVI
Format/Info : Audio Video Interleave
File size : 970 MiB
Duration : 2h 22mn
Overall bit rate : 950 Kbps
Video
Format : MPEG-4 Visual
Bit rate : 810 Kbps
Width : 640 pixels
Height : 524 pixels
Display aspect ratio : 4/3
Frame rate : 29.970 fps
Resolution : 8 bits
Colorimetry : 4:2:0
Scan type : Progressive
Audio
Format : MPEG Audio
Format version : Version 1
Format profile : Layer 3
Codec ID : 55
Codec ID/Hint : MP3
Duration : 2h 22mn
Bit rate mode : Constant
Bit rate : 128 Kbps
Channel(s) : 2 channels
Sampling rate : 44.1 KHz
Resolution : 16 bits

http://rapidshare.com/files/225892539/PTRIGNNGLDNG_VCD_Rip_Aryzs_Properties.part01.rar
http://rapidshare.com/files/225892576/PTRIGNNGLDNG_VCD_Rip_Aryzs_Properties.part02.rar
http://rapidshare.com/files/225906613/PTRIGNNGLDNG_VCD_Rip_Aryzs_Properties.part03.rar
http://rapidshare.com/files/225931049/PTRIGNNGLDNG_VCD_Rip_Aryzs_Properties.part04.rar
http://rapidshare.com/files/225932379/PTRIGNNGLDNG_VCD_Rip_Aryzs_Properties.part05.rar
http://rapidshare.com/files/225946916/PTRIGNNGLDNG_VCD_Rip_Aryzs_Properties.part06.rar
http://rapidshare.com/files/226114479/PTRIGNNGLDNG_VCD_Rip_Aryzs_Properties.part07.rar
http://rapidshare.com/files/226115535/PTRIGNNGLDNG_VCD_Rip_Aryzs_Properties.part08.rar
http://rapidshare.com/files/226127493/PTRIGNNGLDNG_VCD_Rip_Aryzs_Properties.part09.rar
http://rapidshare.com/files/226289316/PTRIGNNGLDNG_VCD_Rip_Aryzs_Properties.part10.rar

No Password




http://www.imdb.com/title/tt0482267/

Movie Plot
Soraya is a trainee nurse who is starting to feel disaffected by her life. A chance introduction to the world of glamour piques her earlier ambition to be a star. She doesn't succeed at first but she is told that the forbidden practice of "susuk" can help. Meanwhile, Suzana is a prominent diva with an air of mystery. A practitioner of the black arts, especially the extreme "susuk keramat", she requires human lives for her exploits. We follow the eventful lives of these two women until we get to the secret of the dreaded charm.


Susuk
Format : AVI
Format/Info : Audio Video Interleave
File size : 701 MiB
PlayTime : 1h 44mn
Video
Codec : XviD
Codec/Family : MPEG-4V
Bit rate : 822 Kbps
Width : 672 pixels
Height : 368 pixels
Display Aspect ratio : 16/9
Frame rate : 25.000 fps
Resolution : 8 bits
Chroma : 4:2:0
Interlacement : Progressive
Bits/(Pixel*Frame) : 0.133
StreamSize/String : 612 MiB
Audio
Codec : MPEG-1 Audio layer 3
Codec profile : Joint stereo
PlayTime : 1h 44mn
Bit rate mode : VBR
Bit rate : 107 Kbps
Minimum bit rate : 128 Kbps
Channel(s) : 2 channels
Sampling rate : 48.0 KHz
Resolution : 16 bits
Video0 delay : 24ms
StreamSize/String : 79.3 MiB
Writing library : LAME3.97
Encoding settings : ABR


download:

http://rapidshare.com/files/162452454/SSK_DVD_Rip_Aryzs_ENGLSHSUBB.part1.rar
http://rapidshare.com/files/162452451/SSK_DVD_Rip_Aryzs_ENGLSHSUBB.part2.rar
http://rapidshare.com/files/162505027/SSK_DVD_Rip_Aryzs_ENGLSHSUBB.part3.rar
http://rapidshare.com/files/162787148/SSK_DVD_Rip_Aryzs_ENGLSHSUBB.part4.rar
http://rapidshare.com/files/162810485/SSK_DVD_Rip_Aryzs_ENGLSHSUBB.part5.rar
http://rapidshare.com/files/162845438/SSK_DVD_Rip_Aryzs_ENGLSHSUBB.part6.rar
http://rapidshare.com/files/162869728/SSK_DVD_Rip_Aryzs_ENGLSHSUBB.part7.rar
http://rapidshare.com/files/162884355/SSK_DVD_Rip_Aryzs_ENGLSHSUBB.part8.rar


http://www.megaupload.com/?d=XTYUNU6T
http://www.megaupload.com/?d=U48WLM0J
http://www.megaupload.com/?d=6KHKQOZR
http://www.megaupload.com/?d=GP134YRD
http://www.megaupload.com/?d=5TDH2RF8
http://www.megaupload.com/?d=LGOPOT3B
http://www.megaupload.com/?d=6QMT6KXR
http://www.megaupload.com/?d=3XOQNSIZ

No Password


Enjoy... :)

Perempuan, Isteri Dan ... ? ( 1993 ) [VCD Rip]

Posted by Filemmelayuretro Admin 3 ucapan



http://www.sinemamalaysia.com.my/main/index.php?mod=film&p=info&id=223

Language : Malay
Subtitle : None

Synopsis
Zaleha disappears on the day of her wedding to amir and elopes with her loves, Jalil to Thailand. Amir tracks them and kills Jalil. He rapes and sells her to a pimp. Later, he brings her back to Malaysia. While staying in a hotel, they are caught for close proximity and are forced to marry. Zaleha’s immoral behaviour creates dissension amongst the village community. Finally, Amir kills his wife and her lover.


Perempuan Isteri Dan Jalang
Format : AVI
Format/Info : Audio Video Interleave
Format/Family : RIFF
File size : 667 MiB
PlayTime : 1h 47mn
Bit rate : 867 Kbps
StreamSize/String : 16.9 MiB
Video
Codec : XviD
Codec/Family : MPEG-4V
Bit rate : 733 Kbps
Width : 352 pixels
Height : 288 pixels
Display Aspect ratio : 1.222
Frame rate : 25.049 fps
Resolution : 8 bits
Chroma : 4:2:0
Interlacement : Progressive
Audio
Codec : MPEG-1 Audio layer 3
Codec profile : Joint stereo
PlayTime : 1h 47mn
Bit rate mode : CBR
Bit rate : 112 Kbps
Channel(s) : 2 channels
Sampling rate : 44.1 KHz
Resolution : 16 bits

http://rapidshare.com/files/218720613/PMPNISTRDNJLNG_VCD_Rip_Aryzs_Properties.part1.rar
http://rapidshare.com/files/218762629/PMPNISTRDNJLNG_VCD_Rip_Aryzs_Properties.part2.rar
http://rapidshare.com/files/218762592/PMPNISTRDNJLNG_VCD_Rip_Aryzs_Properties.part3.rar
http://rapidshare.com/files/218787777/PMPNISTRDNJLNG_VCD_Rip_Aryzs_Properties.part4.rar
http://rapidshare.com/files/218762590/PMPNISTRDNJLNG_VCD_Rip_Aryzs_Properties.part5.rar
http://rapidshare.com/files/218716548/PMPNISTRDNJLNG_VCD_Rip_Aryzs_Properties.part6.rar
http://rapidshare.com/files/218787771/PMPNISTRDNJLNG_VCD_Rip_Aryzs_Properties.part7.rar

No Password

Imigran ( 1993 ) [DVD Rip]

Posted by Filemmelayuretro Admin 0 ucapan



http://www.sinemamalaysia.com.my/main/index.php?mod=film&p=info&id=401

Language : Malay
Subtitle : None

Synopsis
Hisham is under a lot of stress due to heavy workload and dissapointment with his girlfriend, Azura. Faridah, an illegal immigrant who works as a shop assistant, witnesses a robbery and is wanted by the robbers. She hides in Hisham’s car and is brought back to his village without Hisham’s knowledge. They become close. Azura unexpectedly visits Hisham and feels jealous seeing Hisham and Faridah together. Then, Azura goes missing. Hisham panics and starts to search for her. He receives a note demanding an exchange for Faridah with Azura.


Imigran
Format : AVI
Format/Info : Audio Video Interleave
Format/Family : RIFF
File size : 700 MiB
PlayTime : 1h 39mn
Bit rate : 986 Kbps
StreamSize/String : 9.03 MiB
Video
Codec : XviD
Codec/Family : MPEG-4V
Bit rate : 871 Kbps
Width : 512 pixels
Height : 384 pixels
Display Aspect ratio : 4/3
Frame rate : 23.976 fps
Resolution : 8 bits
Chroma : 4:2:0
Interlacement : Progressive
Audio
Codec : MPEG-1 Audio layer 3
Codec profile : Joint stereo
PlayTime : 1h 39mn
Bit rate mode : VBR
Bit rate : 101 Kbps
Minimum bit rate : 128 Kbps
Channel(s) : 2 channels
Sampling rate : 48.0 KHz
Resolution : 16 bits
StreamSize/String : 72.1 MiB
Writing library : LAME3.97
Encoding settings : ABR



http://rapidshare.com/files/223369347/IMGRN_DVD_Rip_Aryzs_Properties.part1.rar
http://rapidshare.com/files/223376711/IMGRN_DVD_Rip_Aryzs_Properties.part2.rar
http://rapidshare.com/files/223379511/IMGRN_DVD_Rip_Aryzs_Properties.part3.rar
http://rapidshare.com/files/223539501/IMGRN_DVD_Rip_Aryzs_Properties.part4.rar
http://rapidshare.com/files/223546034/IMGRN_DVD_Rip_Aryzs_Properties.part5.rar
http://rapidshare.com/files/223548352/IMGRN_DVD_Rip_Aryzs_Properties.part6.rar
http://rapidshare.com/files/223577746/IMGRN_DVD_Rip_Aryzs_Properties.part7.rar
http://rapidshare.com/files/223583398/IMGRN_DVD_Rip_Aryzs_Properties.part8.rar

No Password

Gubra (2006) [VCD Rip]

Posted by Filemmelayuretro Admin Friday, June 19, 2009 0 ucapan






http://www.sinemamalaysia.com.my/main/index.php?mod=film&p=info&id=50

Language : Malay
Subtitle : English Hard-Subb

Sinopsis
Orked ialah seorang wanita muda berkarier. Dia dibesarkan dalam sebuah keluarga yang mempunyai kehidupan yang selesa. Suaminya, Arif,

ialah seorang eksekutif pengiklanan yang berjaya dan jauh lebih berumur dari Orked. Pada suatu pagi, Orked telah menerima berita yang

bapanya sedang sakit. Keadaan sebegitu memperlihatkan Arif sebagai seorang yang penyayang dan tabah menghadapi situasi yang cemas

semasa keluarga Orked bersedia dalam keadaan tekanan emosi dan huru hara. Keadaan menjadi tegang setelah Orked, secara tidak sengaja,

mendapati Arif yang disayangi dan dipercayainya, mungkin telah menjalinkan hubungan sulit dengan seorang wanita lain. Di seberang Bandar,

di sebuah kawasan perumahan kos rendah, seorang muezzin muda dan isterinya yang sentiasa ceria, tinggal berjiran dengan beberapa orang

pelacur. Walaupun pasangan muda ini tiada perasaan sangsi terhadap mereka namun pasangan muda ini telah terjebak ke dalam keganasan yang

melanda kehidupan kedua-dua pelacur tersebut.“Gubra” selang seli menceritakan keadaan kedua-dua keluarga. Walaupun kedua-dua keluarga

ini mempunyai banyak perbezaan dan tidak saling mengenali, tetapi mereka melalui perasaan yang sama menghadapi keriangan, keperitan dan

cabaran yang sentiasa membayangi kasih sayang.


Gubra
Format : AVI
Format/Info : Audio Video Interleave
File size : 565 MiB
Duration : 1h 49mn
Overall bit rate : 725 Kbps
Writing library : MPlayer
Video
Format : MPEG-4 Visual
Bit rate : 591 Kbps
Width : 352 pixels
Height : 240 pixels
Display aspect ratio : 4/3
Frame rate : 23.976 fps
Resolution : 8 bits
Colorimetry : 4:2:0
Scan type : Progressive
Bits/(Pixel*Frame) : 0.292
Audio
Format : MPEG Audio
Format version : Version 1
Format profile : Layer 3
Codec ID : 55
Codec ID/Hint : MP3
Duration : 1h 49mn
Bit rate mode : Constant
Bit rate : 128 Kbps
Channel(s) : 2 channels
Sampling rate : 44.1 KHz
Resolution : 16 bits
Stream size : 99.8 MiB (18%)
Alignment : Split accross interleaves
Interleave, duration : 500 ms (11.99 video frames)
Interleave, preload duration : 500 ms

http://rapidshare.com/files/191374192/GBRA_VCD_Rip_Aryzs_Properties.part1.rar
http://rapidshare.com/files/191380336/GBRA_VCD_Rip_Aryzs_Properties.part2.rar
http://rapidshare.com/files/191385802/GBRA_VCD_Rip_Aryzs_Properties.part3.rar
http://rapidshare.com/files/191401262/GBRA_VCD_Rip_Aryzs_Properties.part4.rar
http://rapidshare.com/files/191406309/GBRA_VCD_Rip_Aryzs_Properties.part5.rar
http://rapidshare.com/files/191411368/GBRA_VCD_Rip_Aryzs_Properties.part6.rar

No Password

Gerak Kilat ( 1966 ) [VCD Rip]

Posted by Filemmelayuretro Admin 6 ucapan





http://www.sinemamalaysia.com.my/main/index.php?mod=film&p=info&id=586

Synopsis

Gerak Kilat tells the adventures of Jefri Zain a secret agent who uncovers the secrets of Commander Jeaman who founded the Russian Spy. Jefri Zain has visual proofs of their illegal activities in the pictures he has taken. Komander Jaeman came to know of Jefri Zain's move and is struggling to find a way to outwit Jefri Zain. Who will end up being on top?

Language : Malay
Subtitle : None


Gerak Kilat
Format : AVI
Format/Info : Audio Video Interleave
File size : 830 MiB
Duration : 1h 43mn
Overall bit rate : 1119 Kbps
Writing library : MPlayer
Video
Format : MPEG-4 Visual
Bit rate : 985 Kbps
Width : 352 pixels
Height : 288 pixels
Display aspect ratio : 1.222
Frame rate : 29.970 fps
Resolution : 8 bits
Colorimetry : 4:2:0
Scan type : Progressive
Audio
Format : MPEG Audio
Format version : Version 1
Format profile : Layer 3
Codec ID : 55
Codec ID/Hint : MP3
Duration : 1h 43mn
Bit rate mode : Constant
Bit rate : 128 Kbps
Channel(s) : 2 channels
Sampling rate : 44.1 KHz
Resolution : 16 bits
Stream size : 94.9 MiB (11%)
Alignment : Split accross interleaves
Interleave, duration : 500 ms (14.98 video frames)
Interleave, preload duration : 500 ms
Writing library : LAME3.97




http://rapidshare.com/files/206878049/GRKKLT_VCD_Rip_Aryzs_Properties.part01.rar
http://rapidshare.com/files/206883107/GRKKLT_VCD_Rip_Aryzs_Properties.part02.rar
http://rapidshare.com/files/206896284/GRKKLT_VCD_Rip_Aryzs_Properties.part03.rar
http://rapidshare.com/files/206921857/GRKKLT_VCD_Rip_Aryzs_Properties.part04.rar
http://rapidshare.com/files/206931211/GRKKLT_VCD_Rip_Aryzs_Properties.part05.rar
http://rapidshare.com/files/206945309/GRKKLT_VCD_Rip_Aryzs_Properties.part06.rar
http://rapidshare.com/files/206966541/GRKKLT_VCD_Rip_Aryzs_Properties.part07.rar
http://rapidshare.com/files/206973388/GRKKLT_VCD_Rip_Aryzs_Properties.part08.rar
http://rapidshare.com/files/206856288/GRKKLT_VCD_Rip_Aryzs_Properties.part09.rar

No Password

Fenomena (1990) [DVD Rip]

Posted by Filemmelayuretro Admin 4 ucapan






http://www.filemkita.com/filem/f/fenomena_01.html

Synopsis
A Malaysian born British woman goes back to Terengganu where she spent her early years as a child. Upon her arrival, she seeks her family's

old gardener who also doubles as a spiritual healer in the hope that he might be able to help her. She meets his family and his young

granddaughter who has a hole in her heart and soon forgets about her own suffering whilst trying to help her new friend get through hers.


Fenomena
Format : AVI
Format/Info : Audio Video Interleave
File size : 700 MiB
Duration : 1h 49mn
Overall bit rate : 896 Kbps
Video
Format : MPEG-4 Visual
Bit rate : 779 Kbps
Width : 528 pixels
Height : 400 pixels
Display aspect ratio : 4/3
Frame rate : 25.000 fps
Resolution : 8 bits
Colorimetry : 4:2:0
Scan type : Progressive
Bits/(Pixel*Frame) : 0.148
Stream size : 609 MiB (87%)
Audio
Format : MPEG Audio
Format version : Version 1
Format profile : Layer 3
Codec ID : 55
Codec ID/Hint : MP3
Duration : 1h 49mn
Bit rate mode : Variable
Bit rate : 104 Kbps
Minimum bit rate : 128 Kbps
Channel(s) : 2 channels
Sampling rate : 48.0 KHz
Resolution : 16 bits
Stream size : 81.2 MiB (12%)
Alignment : Aligned on interleaves
Interleave, duration : 24 ms (0.60 video frame)
Interleave, preload duration : 528 ms
Writing library : LAME3.97
Encoding settings : ABR
http://rapidshare.com/files/189451883/FNMNA_DVD_Rip_Aryzs_Properties.part1.rar
http://rapidshare.com/files/189459095/FNMNA_DVD_Rip_Aryzs_Properties.part2.rar
http://rapidshare.com/files/189465521/FNMNA_DVD_Rip_Aryzs_Properties.part3.rar
http://rapidshare.com/files/190099883/FNMNA_DVD_Rip_Aryzs_Properties.part4.rar
http://rapidshare.com/files/190110494/FNMNA_DVD_Rip_Aryzs_Properties.part5.rar
http://rapidshare.com/files/190122254/FNMNA_DVD_Rip_Aryzs_Properties.part6.rar
http://rapidshare.com/files/190145965/FNMNA_DVD_Rip_Aryzs_Properties.part7.rar
http://rapidshare.com/files/190155742/FNMNA_DVD_Rip_Aryzs_Properties.part8.rar

No Password

Femina (1993) [VCD Rip]

Posted by Filemmelayuretro Admin Wednesday, June 17, 2009 6 ucapan



Synopsis
Tina and Anita are publishers of Femina. A monthly magazine featuring equality amongst the sexes. Tina defends her views while Anita is a crusader. Men resent ideology. Pyan a minibus diver manages to change Tina’s extreme views. Tina is regarded as a traitor to the women and all special privileges that have extended to her are withdrawn. This put her in a spot.

Language : Malay
Subtitle : English Hard-Subb


Femina
Format : AVI
File size : 627 MiB
Duration : 1h 46mn
Overall bit rate : 821 Kbps
Video
Format : MPEG-4 Visual
Bit rate : 688 Kbps
Width : 352 pixels
Height : 288 pixels
Display aspect ratio : 4/3
Frame rate : 23.976 fps
Resolution : 8 bits
Colorimetry : 4:2:0
Scan type : Progressive
Bits/(Pixel*Frame) : 0.283
Stream size : 525 MiB (84%)
Audio
Format : MPEG Audio
Format version : Version 1
Format profile : Layer 3
Codec ID : 55
Codec ID/Hint : MP3
Duration : 1h 46mn
Bit rate mode : Constant
Bit rate : 128 Kbps
Channel(s) : 2 channels
Sampling rate : 44.1 KHz
Resolution : 16 bits





http://rapidshare.com/files/187052020/FMNA_VCD_Rip_Aryzs_Properties.part1.rar
http://rapidshare.com/files/187105678/FMNA_VCD_Rip_Aryzs_Properties.part2.rar
http://rapidshare.com/files/187107860/FMNA_VCD_Rip_Aryzs_Properties.part3.rar
http://rapidshare.com/files/187184814/FMNA_VCD_Rip_Aryzs_Properties.part4.rar
http://rapidshare.com/files/187191506/FMNA_VCD_Rip_Aryzs_Properties.part5.rar
http://rapidshare.com/files/187255691/FMNA_VCD_Rip_Aryzs_Properties.part6.rar
http://rapidshare.com/files/187261695/FMNA_VCD_Rip_Aryzs_Properties.part7.rar

ShoutMix


ShoutMix chat widget

statistik

Blogumulus by Roy Tanck and Amanda FazaniInstalled by CahayaBiru.com

Followers

Divx movies for full satisfaction

Divx movies for full satisfaction

disclaimer

Disclaimer None of the files shown here are actually hosted or transmitted by this server. The links are provided solely by this site's users. The administrator of this site (filemmelayuretro) cannot be held responsible for what its users post, or any other actions of its users. You may not use this site to distribute or download any material when you do not have the legal rights to do so. It is your own responsibility to adhere to these terms.

we are fully guaranty

we are fully guaranty