Diari Romeo ( 2003 ) [ XVID TV ]

Posted by Filemmelayuretro Admin Friday, July 31, 2009 45 ucapan



http://www.sinemamalaysia.com.my/main/index.php?mod=film&p=info&id=81

Language : Malay
Subtitle : English

Synopsis
Dani is naive and sweet, but overall, he is pretty much a geek. His life is one big struggle to transform from a nerd into a stud. His attempts at finding a girlfriend in his new boarding school proves unsuccessful. His father, Jay, is just like his son - timid and completely controlled by his wife, Munah and lives in fear of her wrath. However, Dani finds out that his father has a way with other woman. When Dani asks his father to teach him the art of flirtation, Jay refuses, fearing his wife may find out. Soon after, Dani finds an envelope outside his house, left mysteriously by some stranger. Inside, he finds a diary, entitled 'Diari Romeo'. He starts to read it and assumes that it's his father's. The diary has pictures and explanations on how to be a stud, and armed with this powerful weapon, Dani's confidence soon grows. However, what Dani is unaware of is that the diary does not belong to his father. So the question is: whom does it really belong to and why did that person leave the diary at Dani's doorstep?



Format : AVI
Format/Info : Audio Video Interleave
File size : 700 MiB
Duration : 1h 46mn
Overall bit rate : 920 Kbps
Video
Format : MPEG-4 Visual
Bit rate : 803 Kbps
Width : 608 pixels
Height : 400 pixels
Display aspect ratio : 1.520
Frame rate : 25.000 fps
Resolution : 8 bits
Colorimetry : 4:2:0
Scan type : Progressive
Audio
Format : MPEG Audio
Format version : Version 1
Format profile : Layer 3
Codec ID : 55
Codec ID/Hint : MP3
Duration : 1h 46mn
Bit rate mode : Variable
Bit rate : 104 Kbps
Minimum bit rate : 128 Kbps
Channel(s) : 2 channels
Sampling rate : 48.0 KHz
Resolution : 16 bits
Writing library : LAME3.97
Encoding settings : ABR

http://rapidshare.com/files/237150108/DRIRMEO_XVID_TV_Aryzs_Properties.part1.rar
http://rapidshare.com/files/237177529/DRIRMEO_XVID_TV_Aryzs_Properties.part2.rar
http://rapidshare.com/files/237178759/DRIRMEO_XVID_TV_Aryzs_Properties.part3.rar
http://rapidshare.com/files/237179567/DRIRMEO_XVID_TV_Aryzs_Properties.part4.rar
http://rapidshare.com/files/237197162/DRIRMEO_XVID_TV_Aryzs_Properties.part5.rar
http://rapidshare.com/files/237363553/DRIRMEO_XVID_TV_Aryzs_Properties.part6.rar
http://rapidshare.com/files/237364089/DRIRMEO_XVID_TV_Aryzs_Properties.part7.rar
http://rapidshare.com/files/237141183/DRIRMEO_XVID_TV_Aryzs_Properties.part8.rar
No Password

Tribute to Yasmin Ahmad - pengarah filem prolifik

Posted by Filemmelayuretro Admin Wednesday, July 29, 2009 2 ucapan

3 FILEM KARYA TERHEBAT BELIAU...



1- SEPET
2- GUBRA
3- MUKHSIN



SEPET(2004)
http://rapidshare.com/files/191257875/SPET_VCD_Rip_Aryzs_Properties.part1.rar
http://rapidshare.com/files/191282988/SPET_VCD_Rip_Aryzs_Properties.part2.rar
http://rapidshare.com/files/191320788/SPET_VCD_Rip_Aryzs_Properties.part3.rar
http://rapidshare.com/files/191335288/SPET_VCD_Rip_Aryzs_Properties.part4.rar
http://rapidshare.com/files/191342208/SPET_VCD_Rip_Aryzs_Properties.part5.rar
http://rapidshare.com/files/191356072/SPET_VCD_Rip_Aryzs_Properties.part6.rar
http://rapidshare.com/files/191368839/SPET_VCD_Rip_Aryzs_Properties.part7.rar


GUBRA(2006)
http://rapidshare.com/files/191374192/GBRA_VCD_Rip_Aryzs_Properties.part1.rar
http://rapidshare.com/files/191380336/GBRA_VCD_Rip_Aryzs_Properties.part2.rar
http://rapidshare.com/files/191385802/GBRA_VCD_Rip_Aryzs_Properties.part3.rar
http://rapidshare.com/files/191401262/GBRA_VCD_Rip_Aryzs_Properties.part4.rar
http://rapidshare.com/files/191406309/GBRA_VCD_Rip_Aryzs_Properties.part5.rar
http://rapidshare.com/files/191411368/GBRA_VCD_Rip_Aryzs_Properties.part6.rar



MUKHSIN(2006)
http://rapidshare.com/files/191423504/MKHSN_VCD_Rip_Aryzs_Properties.part1.rar
http://rapidshare.com/files/191427998/MKHSN_VCD_Rip_Aryzs_Properties.part2.rar
http://rapidshare.com/files/191429375/MKHSN_VCD_Rip_Aryzs_Properties.part3.rar
http://rapidshare.com/files/191446283/MKHSN_VCD_Rip_Aryzs_Properties.part4.rar
http://rapidshare.com/files/191452671/MKHSN_VCD_Rip_Aryzs_Properties.part5.rar
http://rapidshare.com/files/191453115/MKHSN_VCD_Rip_Aryzs_Properties.part6.rar

NO PASSWORD

[RS] [MU] Adik.Manja.[1979].VCDRip.XviD

Posted by Filemmelayuretro Admin Sunday, July 26, 2009 0 ucapan




http://www.sinemamalaysia.com.my/main/index.php?mod=film&p=info&id=393

Language : Malay
Subtitle : None

Synopsis
A young teacher, Azmi is offered teaching post at a girl's school. The reaction from the students is quite hilarious as tis is the first time a male teacher has been posted to the school. Just before reporting for duty, he stumbles upon a baby which has been abandoned at a clinic. He takes the baby with him and the presence of the baby amuses the students and others teachers. However, one teacher, Bedah, dislikes Azmi and tries everything she can to get rid of him. Azmi get the help of another teacher, Sharina and some students to baby-sit. Azmi’s freindship with Sharina is miscountrued and malicious gossips begin to spread that the baby is actually their love child. At the same time, a jilted student tries to commit suicide.


Adik.Manja.1979.VCDRip.XviD-arYzs
Format : AVI
Format/Info : Audio Video Interleave
File size : 700 MiB
Duration : 1h 56mn
Overall bit rate : 836 Kbps
Video
Format : MPEG-4 Visual
Bit rate : 701 Kbps
Width : 608 pixels
Height : 496 pixels
Display aspect ratio : 1.226
Frame rate : 23.976 fps
Resolution : 8 bits
Colorimetry : 4:2:0
Scan type : Progressive
Audio
Format : MPEG Audio
Format version : Version 1
Format profile : Layer 3
Codec ID : 55
Codec ID/Hint : MP3
Duration : 1h 56mn
Bit rate mode : Constant
Bit rate : 128 Kbps
Channel(s) : 2 channels
Sampling rate : 44.1 KHz
Resolution : 16 bits

Rapidshare
http://rapidshare.com/files/244472742/Adik.Manja.1979.VCDRip.XviD-arYzs.part1.rar
http://rapidshare.com/files/244516361/Adik.Manja.1979.VCDRip.XviD-arYzs.part2.rar
http://rapidshare.com/files/244517352/Adik.Manja.1979.VCDRip.XviD-arYzs.part3.rar
http://rapidshare.com/files/244518745/Adik.Manja.1979.VCDRip.XviD-arYzs.part4.rar
http://rapidshare.com/files/244520028/Adik.Manja.1979.VCDRip.XviD-arYzs.part5.rar
http://rapidshare.com/files/244565753/Adik.Manja.1979.VCDRip.XviD-arYzs.part6.rar
http://rapidshare.com/files/244566632/Adik.Manja.1979.VCDRip.XviD-arYzs.part7.rar
http://rapidshare.com/files/244566955/Adik.Manja.1979.VCDRip.XviD-arYzs.part8.rar
No Password

Megaupload
Part 1 - http://www.megaupload.com/?d=MQBYQDYD
Part 2 - http://www.megaupload.com/?d=QZ9KW46O
Part 3 - http://www.megaupload.com/?d=6INMWJDO
Part 4 - http://www.megaupload.com/?d=B1JBM234
Part 5 - http://www.megaupload.com/?d=VU4E89SE
Part 6 - http://www.megaupload.com/?d=XCRC9RDU
Part 7 - http://www.megaupload.com/?d=VJVPAXVU
Part 8 - http://www.megaupload.com/?d=0UL8D7ZY
No Password

*** Links Are Interchangeable ***

Tiga.Botak.1965.SDTVRip.XviD-arYzs

Posted by Filemmelayuretro Admin Thursday, July 23, 2009 0 ucapan




http://www.sinemamalaysia.com.my/main/index.php?mod=film&p=info&id=502

Language : Malay
Subtitle : None

Synopsis
Tells the tale of three friends who are jobless. One day a wealthy widower lost her daughter. By coincidence the three of them found the child at their house. When she found out that the three gentleman was taking care of her she offered them to stay with her. The gentlemans tried so many ways to woo her. They even shaved their head bald because the widower fancied bald men.


Tiga.Botak.1965.SDTVRip.XviD-arYzs
Format : AVI
Format/Info : Audio Video Interleave
File size : 700 MiB
Duration : 1h 53mn
Overall bit rate : 866 Kbps
Video
Format : MPEG-4 Visual
Duration : 1h 53mn
Bit rate : 752 Kbps
Width : 512 pixels
Height : 384 pixels
Display aspect ratio : 4/3
Frame rate : 25.000 fps
Resolution : 8 bits
Colorimetry : 4:2:0
Scan type : Progressive
Audio
Format : MPEG Audio
Format version : Version 1
Format profile : Layer 3
Codec ID : 55
Codec ID/Hint : MP3
Duration : 1h 53mn
Bit rate mode : Variable
Bit rate : 101 Kbps
Minimum bit rate : 128 Kbps
Channel(s) : 2 channels
Sampling rate : 48.0 KHz
Resolution : 16 bits
Encoding settings : ABR


http://rapidshare.com/files/250791837/Tiga.Botak.1965.SDTVRip.XviD-arYzs.part1.rar
http://rapidshare.com/files/250997286/Tiga.Botak.1965.SDTVRip.XviD-arYzs.part2.rar
http://rapidshare.com/files/250997349/Tiga.Botak.1965.SDTVRip.XviD-arYzs.part3.rar
http://rapidshare.com/files/251009323/Tiga.Botak.1965.SDTVRip.XviD-arYzs.part4.rar
http://rapidshare.com/files/250997336/Tiga.Botak.1965.SDTVRip.XviD-arYzs.part5.rar
http://rapidshare.com/files/250997304/Tiga.Botak.1965.SDTVRip.XviD-arYzs.part6.rar
http://rapidshare.com/files/250997347/Tiga.Botak.1965.SDTVRip.XviD-arYzs.part7.rar
http://rapidshare.com/files/250997307/Tiga.Botak.1965.SDTVRip.XviD-arYzs.part8.rar

No Password

Batu Belah Batu Bertangkup ( 1959 ) [ XVID TV ]

Posted by Filemmelayuretro Admin Wednesday, July 22, 2009 1 ucapan




[code]http://www.filemkita.com/filem/b/batu_belah_batu_bertangkup_01.html[/code]

Language : Malay
Subtitle : English

Batu Belah Batu Bertangkup
Format : AVI
Format/Info : Audio Video Interleave
File size : 700 MiB
Duration : 1h 46mn
Overall bit rate : 916 Kbps
Video
Format : MPEG-4 Visual
Bit rate : 801 Kbps
Width : 512 pixels
Height : 384 pixels
Display aspect ratio : 4/3
Frame rate : 25.000 fps
Resolution : 8 bits
Colorimetry : 4:2:0
Scan type : Progressive
Audio
Format : MPEG Audio
Format version : Version 1
Format profile : Layer 3
Codec ID : 55
Codec ID/Hint : MP3
Duration : 1h 46mn
Bit rate mode : Variable
Bit rate : 102 Kbps
Minimum bit rate : 128 Kbps
Channel(s) : 2 channels
Sampling rate : 48.0 KHz
Resolution : 16 bits
Writing library : LAME3.97
Encoding settings : ABR

http://rapidshare.com/files/237244614/BTUBLHBTUBRTNGKP_XVIDTV_Aryzs_Properties.part1.rar
http://rapidshare.com/files/237244611/BTUBLHBTUBRTNGKP_XVIDTV_Aryzs_Properties.part2.rar
http://rapidshare.com/files/237244612/BTUBLHBTUBRTNGKP_XVIDTV_Aryzs_Properties.part3.rar
http://rapidshare.com/files/237244634/BTUBLHBTUBRTNGKP_XVIDTV_Aryzs_Properties.part4.rar
http://rapidshare.com/files/237271521/BTUBLHBTUBRTNGKP_XVIDTV_Aryzs_Properties.part5.rar
http://rapidshare.com/files/237271524/BTUBLHBTUBRTNGKP_XVIDTV_Aryzs_Properties.part6.rar
http://rapidshare.com/files/237271956/BTUBLHBTUBRTNGKP_XVIDTV_Aryzs_Properties.part7.rar
http://rapidshare.com/files/237271513/BTUBLHBTUBRTNGKP_XVIDTV_Aryzs_Properties.part8.rar

No Pasword

Bujang Lapok Kembali...Daa (1986) [VCD Rip]

Posted by Filemmelayuretro Admin Tuesday, July 21, 2009 1 ucapan



http://www.sinemamalaysia.com.my/main/index.php?mod=film&p=info&id=332

Language : Malay
Subtitle : None

Sinopsis
Dua orang bujang berkerja sebagai pemandu teksi dan penjaga kereta berkongsi sewa rumah di tengah kota. Semasa menjaga barnag-barang, Aziz dan Sudin menyaksikan kejadian samun lalu kejar penyamun yang melarikan diri ke hutan di mana mereka jumpa sekeluarga Jepun.


Bujang Lapok Kembali...Daa.avi
General
Complete name : E:\MOVIES\Bujang Lapok Kembali...Daa.avi
Format : AVI
Format/Info : Audio Video Interleave
File size : 900 MiB
Duration : 1h 52mn
Overall bit rate : 1122 Kbps
Writing library : MPlayer
Video
Format : MPEG-4 Visual
Format profile : Streaming Video@L1
Format settings, BVOP : Yes
Format settings, QPel : No
Format settings, GMC : No warppoints
Format settings, Matrix : Default
Codec ID : XVID
Codec ID/Hint : XviD
Duration : 1h 52mn
Bit rate : 989 Kbps
Width : 352 pixels
Height : 288 pixels
Display aspect ratio : 4/3
Frame rate : 23.976 fps
Resolution : 8 bits
Colorimetry : 4:2:0
Scan type : Progressive
Bits/(Pixel*Frame) : 0.407
Stream size : 793 MiB (88%)
Writing library : XviD 1.1.2 (UTC 2006-11-01)
Audio
Format : MPEG Audio
Format version : Version 1
Format profile : Layer 3
Codec ID : 55
Codec ID/Hint : MP3
Duration : 1h 52mn
Bit rate mode : Constant
Bit rate : 128 Kbps
Channel(s) : 2 channels
Sampling rate : 44.1 KHz
Resolution : 16 bits
Stream size : 103 MiB (11%)
Alignment : Split accross interleaves
Interleave, duration : 500 ms (11.99 video frames)
Interleave, preload duration : 500 ms


http://rapidshare.com/files/190751057/BJGLPKKMBLDAA_VCD_Rip_Aryzs_Properties.part01.rar
http://rapidshare.com/files/190761347/BJGLPKKMBLDAA_VCD_Rip_Aryzs_Properties.part02.rar
http://rapidshare.com/files/190791452/BJGLPKKMBLDAA_VCD_Rip_Aryzs_Properties.part03.rar
http://rapidshare.com/files/190798896/BJGLPKKMBLDAA_VCD_Rip_Aryzs_Properties.part04.rar
http://rapidshare.com/files/190808745/BJGLPKKMBLDAA_VCD_Rip_Aryzs_Properties.part05.rar
http://rapidshare.com/files/190839307/BJGLPKKMBLDAA_VCD_Rip_Aryzs_Properties.part06.rar
http://rapidshare.com/files/190844757/BJGLPKKMBLDAA_VCD_Rip_Aryzs_Properties.part07.rar
http://rapidshare.com/files/190854907/BJGLPKKMBLDAA_VCD_Rip_Aryzs_Properties.part08.rar
http://rapidshare.com/files/190881462/BJGLPKKMBLDAA_VCD_Rip_Aryzs_Properties.part09.rar
http://rapidshare.com/files/190743177/BJGLPKKMBLDAA_VCD_Rip_Aryzs_Properties.part10.rar

No Password

Si Jantung Hati [DVD Rip]

Posted by Filemmelayuretro Admin Monday, July 20, 2009 0 ucapan




Si Jantung Hati
Format : AVI
File size : 699 MiB
PlayTime : 1h 31mn
Bit rate : 1059 Kbps
Video #0
Codec : XviD
Codec/Family : MPEG-4
Bit rate : 931 Kbps
Width : 512 pixels
Height : 304 pixels
Display Aspect ratio : 1.684
Frame rate : 25.000 fps
Resolution : 8 bits
Chroma : 4:2:0
Interlacement : Progressive
Bits/(Pixel*Frame) : 0.237
StreamSize : 610 MiB
Audio #1
Codec : MPEG-1 Audio layer 3
Codec profile : Joint stereo
PlayTime : 1h 31mn
Bit rate : 120 Kbps
Bit rate mode : VBR
Channel(s) : 2 channels
Sampling rate : 48 KHz
Resolution : 16 bits
StreamSize : 78.4 MiB
Writing library : LAME3.97
Encoding settings : ABR

http://rapidshare.com/files/123406997/SJH_DVD_Rip_Aryzs_Properties.part1.rar
http://rapidshare.com/files/123417030/SJH_DVD_Rip_Aryzs_Properties.part2.rar
http://rapidshare.com/files/123424147/SJH_DVD_Rip_Aryzs_Properties.part3.rar
http://rapidshare.com/files/123434456/SJH_DVD_Rip_Aryzs_Properties.part4.rar
http://rapidshare.com/files/123577824/SJH_DVD_Rip_Aryzs_Properties.part5.rar
http://rapidshare.com/files/123605391/SJH_DVD_Rip_Aryzs_Properties.part6.rar
http://rapidshare.com/files/123615639/SJH_DVD_Rip_Aryzs_Properties.part7.rar
http://rapidshare.com/files/123402823/SJH_DVD_Rip_Aryzs_Properties.part8.rar

PASSWORD : aryzs properties

Soal Hati ( 2000 ) [VCD Rip]

Posted by Filemmelayuretro Admin Sunday, July 19, 2009 1 ucapan


http://www.sinemamalaysia.com.my/main/index.php?mod=film&p=info&id=55

Language : Malay
Subtitle : None

Synopsis
Ahmad Daniel has everything a young man could wish for; loving parents, megabucks and girls, girls and girls. But when he first set his sights on pretty kampung lass Nurul Ain, it was indeed love at first sight. Nurul is a salesgirl in the departmental store and takes night classes for self-development. With the help of his driver and confidante, Osman, Daniel sets out to woo Nurul by pretending to be plain ol' Ahmad. He has had his share of bad experiences when women want him because of his wealth and not for who he is. However, Nurul's uncle who is having financial difficulties wants to marry her off to a rich widower. To halt his plans, Daniel explained who he really is. Feeling betrayed that the one she loved and trusted most had lied to her, Nurul could not accept Daniel back. Can Daniel woo her back? Can he now overcome the insurmountable obstacles to win back the heart of the woman he loves?


Soal Hati
Format : AVI
Format/Info : Audio Video Interleave
File size : 978 MiB
Duration : 1h 57mn
Overall bit rate : 1165 Kbps
Writing library : MPlayer
Video
Format : MPEG-4 Visual
Bit rate : 1030 Kbps
Width : 352 pixels
Height : 288 pixels
Display aspect ratio : 1.222
Frame rate : 29.970 fps
Resolution : 8 bits
Colorimetry : 4:2:0
Scan type : Progressive
Audio
Format : MPEG Audio
Format version : Version 1
Format profile : Layer 3
Codec ID : 55
Codec ID/Hint : MP3
Duration : 1h 57mn
Bit rate mode : Constant
Bit rate : 128 Kbps
Channel(s) : 2 channels
Sampling rate : 44.1 KHz
Writing library : LAME3.97

http://rapidshare.com/files/217079741/SLHTI_VCD_Rip_Aryzs.part01.rar
http://rapidshare.com/files/217090773/SLHTI_VCD_Rip_Aryzs.part02.rar
http://rapidshare.com/files/217105082/SLHTI_VCD_Rip_Aryzs.part03.rar
http://rapidshare.com/files/217115183/SLHTI_VCD_Rip_Aryzs.part04.rar
http://rapidshare.com/files/217124900/SLHTI_VCD_Rip_Aryzs.part05.rar
http://rapidshare.com/files/217136864/SLHTI_VCD_Rip_Aryzs.part06.rar
http://rapidshare.com/files/217143398/SLHTI_VCD_Rip_Aryzs.part07.rar
http://rapidshare.com/files/217150395/SLHTI_VCD_Rip_Aryzs.part08.rar
http://rapidshare.com/files/217181195/SLHTI_VCD_Rip_Aryzs.part09.rar
http://rapidshare.com/files/217181210/SLHTI_VCD_Rip_Aryzs.part10.rar
http://rapidshare.com/files/217077429/SLHTI_VCD_Rip_Aryzs.part11.rar

No Password

Semerah.Padi.1956.VCDRip.XviD-arYzs

Posted by Filemmelayuretro Admin Saturday, July 18, 2009 0 ucapan



http://www.sinemamalaysia.com.my/main/index.php?mod=film&p=info&id=512

Language : Malay
Subtitle : None

Synopsis
Aduka and Teruna are sworn brothers. They have been tasked to keep the law and order according to the Islam ways of the village, Semerah Padi. The village Headmaster has a daughter, Dara, whom has fallen for Aduka secretly. The Headmaster decided to marry his daughter to Teruna not knowing about the relationship between Dara and Aduka. The lovebirds were heart broken but decided to keep things to themselves, Dara not wanting to go against her father's wishes and Aduka not wanting to hurt his brother.
The country was attacked by the pirates and Teruna was sent by the Headmaster to render his services to the Sultan. Whilst Teruna was away, Semerah Padi was attacked by Borek and his gang and Dara was kidnapped. Aduka managed to kill Borek and rescued her. With love and passion overcoming their emotions, they committed adultery. Teruna came back victorious and discovered what had happened. What was Teruna's reaction? What happened to Dara and Aduka?

Semerah.Padi.1956.VCDRip.XviD-arYzs
Format : AVI
Format/Info : Audio Video Interleave
File size : 700 MiB
Duration : 1h 35mn
Overall bit rate : 1026 Kbps
Video
Format : MPEG-4 Visual
Bit rate : 891 Kbps
Width : 352 pixels
Height : 288 pixels
Display aspect ratio : 1.222
Frame rate : 23.976 fps
Resolution : 8 bits
Colorimetry : 4:2:0
Scan type : Progressive
Audio
Format : MPEG Audio
Format version : Version 1
Format profile : Layer 3
Codec ID : 55
Codec ID/Hint : MP3
Duration : 1h 35mn
Bit rate mode : Constant
Bit rate : 128 Kbps
Channel(s) : 2 channels
Sampling rate : 44.1 KHz
Resolution : 16 bits

http://rapidshare.com/files/255714380/Semerah.Padi.1956.VCDRip.XviD-arYzs.part1.rar
http://rapidshare.com/files/255720918/Semerah.Padi.1956.VCDRip.XviD-arYzs.part2.rar
http://rapidshare.com/files/255725961/Semerah.Padi.1956.VCDRip.XviD-arYzs.part3.rar
http://rapidshare.com/files/255731335/Semerah.Padi.1956.VCDRip.XviD-arYzs.part4.rar
http://rapidshare.com/files/255774184/Semerah.Padi.1956.VCDRip.XviD-arYzs.part5.rar
http://rapidshare.com/files/255783863/Semerah.Padi.1956.VCDRip.XviD-arYzs.part6.rar
http://rapidshare.com/files/255780200/Semerah.Padi.1956.VCDRip.XviD-arYzs.part7.rar
http://rapidshare.com/files/255785144/Semerah.Padi.1956.VCDRip.XviD-arYzs.part8.rar

Si Badol ( 1979 ) [DVD Rip]

Posted by Filemmelayuretro Admin 48 ucapan





http://www.sinemamalaysia.com.my/main/index.php?mod=film&p=info&id=389

Language : Malay
Subtitle : None

Synopsis
Badul disguises himself as a wealthy young man from Sarawak who goes and marry with Milah. After their marriage he uses all of his lies and deceit to cheat really wealthy people by borrowing their money. After getting hold of that large sum of money he disappears without a trace.

[code]
Si Badol
Format : AVI
Format/Info : Audio Video Interleave
File size : 700 MiB
Duration : 1h 49mn
Overall bit rate : 894 Kbps
Video
Format : MPEG-4 Visual
Bit rate : 762 Kbps
Width : 608 pixels
Height : 288 pixels
Display aspect ratio : 2.2
Frame rate : 25.000 fps
Resolution : 8 bits
Colorimetry : 4:2:0
Scan type : Progressive
Audio
Format : MPEG Audio
Format version : Version 1
Format profile : Layer 3
Codec ID : 55
Codec ID/Hint : MP3
Duration : 1h 49mn
Bit rate mode : Variable
Bit rate : 120 Kbps
Minimum bit rate : 128 Kbps
Channel(s) : 2 channels
Sampling rate : 48.0 KHz
Resolution : 16 bits
Stream size : 93.8 MiB (13%)
Alignment : Aligned on interleaves
Interleave, duration : 24 ms (0.60 video frame)
Interleave, preload duration : 534 ms
Writing library : LAME3.97
Encoding settings : ABR

http://rapidshare.com/files/223244262/SBDOL_DVD_Rip_Aryzs_Properties.part1.rar
http://rapidshare.com/files/223276377/SBDOL_DVD_Rip_Aryzs_Properties.part2.rar
http://rapidshare.com/files/223281018/SBDOL_DVD_Rip_Aryzs_Properties.part3.rar
http://rapidshare.com/files/223285649/SBDOL_DVD_Rip_Aryzs_Properties.part4.rar
http://rapidshare.com/files/223316072/SBDOL_DVD_Rip_Aryzs_Properties.part5.rar
http://rapidshare.com/files/223317282/SBDOL_DVD_Rip_Aryzs_Properties.part6.rar
http://rapidshare.com/files/223326608/SBDOL_DVD_Rip_Aryzs_Properties.part7.rar
http://rapidshare.com/files/223363754/SBDOL_DVD_Rip_Aryzs_Properties.part8.rar

No Password

[RS] Rock (2005) VCD Rip

Posted by Filemmelayuretro Admin Thursday, July 16, 2009 6 ucapan





http://www.filemkita.com/filem/r/rock_01.html

Language : Malay
Subtitle : None

Rock
File size : 1.07 GiB
Duration : 1h 43mn
Overall bit rate : 1478 Kbps
Writing library : MPlayer
Video
Bit rate : 1274 Kbps
Width : 640 pixels
Height : 480 pixels
Display aspect ratio : 1.212
Frame rate : 23.976 fps
Resolution : 8 bits
Colorimetry : 4:2:0
Scan type : Progressive
Bits/(Pixel*Frame) : 0.173
Audio
Format : MPEG Audio
Format version : Version 1
Format profile : Layer 3
Codec ID : 55
Codec ID/Hint : MP3
Duration : 1h 43mn
Bit rate mode : Constant
Bit rate : 192 Kbps
Channel(s) : 2 channels
Sampling rate : 44.1 KHz
Resolution : 16 bits

http://rapidshare.com/files/188102716/RCK_VCD_Rip_Aryzs_Properties.part01.rar
http://rapidshare.com/files/188118338/RCK_VCD_Rip_Aryzs_Properties.part02.rar
http://rapidshare.com/files/188222893/RCK_VCD_Rip_Aryzs_Properties.part03.rar
http://rapidshare.com/files/188245254/RCK_VCD_Rip_Aryzs_Properties.part04.rar
http://rapidshare.com/files/188270456/RCK_VCD_Rip_Aryzs_Properties.part05.rar
http://rapidshare.com/files/188291952/RCK_VCD_Rip_Aryzs_Properties.part06.rar
http://rapidshare.com/files/188448987/RCK_VCD_Rip_Aryzs_Properties.part07.rar
http://rapidshare.com/files/188346735/RCK_VCD_Rip_Aryzs_Properties.part08.rar
http://rapidshare.com/files/188448978/RCK_VCD_Rip_Aryzs_Properties.part09.rar
http://rapidshare.com/files/188480933/RCK_VCD_Rip_Aryzs_Properties.part10.rar
http://rapidshare.com/files/188481095/RCK_VCD_Rip_Aryzs_Properties.part11.rar
http://rapidshare.com/files/187910093/RCK_VCD_Rip_Aryzs_Properties.part12.rar

No Password

XX Ray II (1995) [DVD Rip]

Posted by Filemmelayuretro Admin Wednesday, July 15, 2009 0 ucapan





http://www.filemkita.com/filem/x/xx_ray2_01.html

Language : Malay
Subtitle : None

Synopsis
Sebuah satelit geostationary berlaga dengan meteorite di kawasan orbit bumi. Akibat dari itu, satelit tersebut mengalami kerosakan teknikal yang teruk dan dijangka terkeluar dari orbit bila-bila masa. Johan, seorang saintis pelatih di Pusat Sains telah mengaku mencipta sebuah mesin 'laser disposal', walhal idea projek tersebut ialah dari Tina juga seorang saintis pelatih. Tina meminta pertolongan Amir, seorang astronomi muda untuk membantunya mematahkan niat jahat Johan yang berura-ura menggunakan mesin tersebut untuk motif jahat. Kakak Amir, Shima seorang pemandu pelancong yang arif tentang sejarah Melaka, merupakan teman wanita Johan. Amir, Tina, Shima dan Johan terjerumus ke jurang 'time warp' dan memasuki era tamadun kesultanan Melaka, di bawah pemerintahan Sultan Mansur Shah. Mereka turut menjadi saksi kepada persengketaan bersejarah antara Hang Tuah dan Hang Jebat. Amir cuba mengubah sejarah dengan menahan Tuah dari membunuh Jebat, tetapi usahanya gagal. Amir, Johan, Tina dan Shima dianggap penceroboh dan dihadapkan kepada Sultan Mansur Shah...


XX Ray II
Format : AVI
Format/Info : Audio Video Interleave
File size : 699 MiB
Duration : 1h 47mn
Overall bit rate : 905 Kbps
Video
Format : MPEG-4 Visual
Bit rate : 771 Kbps
Width : 464 pixels
Height : 272 pixels
Display aspect ratio : 16/9
Frame rate : 29.970 fps
Resolution : 8 bits
Colorimetry : 4:2:0
Scan type : Progressive
Bits/(Pixel*Frame) : 0.204
Audio
Format : MPEG Audio
Format version : Version 1
Format profile : Layer 3
Codec ID : 55
Codec ID/Hint : MP3
Duration : 1h 47mn
Bit rate mode : Variable
Bit rate : 120 Kbps
Minimum bit rate : 128 Kbps
Channel(s) : 2 channels
Sampling rate : 48.0 KHz
Resolution : 16 bits
Stream size : 93.0 MiB (13%)
Alignment : Aligned on interleaves
Interleave, duration : 24 ms (0.72 video frame)
Interleave, preload duration : 542 ms
Writing library : LAME3.97
Encoding settings : ABR

http://rapidshare.com/files/190391206/XXRYII_DVD_Rip_Aryzs_Properties.part1.rar
http://rapidshare.com/files/190404183/XXRYII_DVD_Rip_Aryzs_Properties.part2.rar
http://rapidshare.com/files/190417223/XXRYII_DVD_Rip_Aryzs_Properties.part3.rar
http://rapidshare.com/files/190425882/XXRYII_DVD_Rip_Aryzs_Properties.part4.rar
http://rapidshare.com/files/190437744/XXRYII_DVD_Rip_Aryzs_Properties.part5.rar
http://rapidshare.com/files/190447852/XXRYII_DVD_Rip_Aryzs_Properties.part6.rar
http://rapidshare.com/files/190454740/XXRYII_DVD_Rip_Aryzs_Properties.part7.rar
http://rapidshare.com/files/190277808/XXRYII_DVD_Rip_Aryzs_Properties.part8.rar

No Password

XX Ray (1992) [DVD Rip]

Posted by Filemmelayuretro Admin 0 ucapan




http://www.filemkita.com/filem/x/xx_ray_01.html

Language : Malay
Subtitle : None

Synopsis
The discovery of XX Ray – a device that allows one to see through things, becomes a disaster when Anuar deliberately sneaks it out and brings it to a party. In the struggle to save this device from Karim, Amir becomes invisible. Will Anuar and Amir succeed in getting the device back or will Amir remain invisible?


XX Ray
Format : AVI
Format/Info : Audio Video Interleave
File size : 698 MiB
Duration : 1h 55mn
Overall bit rate : 847 Kbps
Video
Format : MPEG-4 Visual
Bit rate : 713 Kbps
Width : 544 pixels
Height : 240 pixels
Display aspect ratio : 2.25
Frame rate : 29.970 fps
Resolution : 8 bits
Colorimetry : 4:2:0
Scan type : Progressive
Bits/(Pixel*Frame) : 0.182
Audio
Format : MPEG Audio
Format version : Version 1
Format profile : Layer 3
Codec ID : 55
Codec ID/Hint : MP3
Duration : 1h 55mn
Bit rate mode : Variable
Bit rate : 120 Kbps
Minimum bit rate : 128 Kbps
Channel(s) : 2 channels
Sampling rate : 48.0 KHz
Resolution : 16 bits
Stream size : 99.2 MiB (14%)
Alignment : Aligned on interleaves
Interleave, duration : 24 ms (0.72 video frame)
Interleave, preload duration : 542 ms
Writing library : LAME3.97
Encoding settings : ABR

http://rapidshare.com/files/190288844/XXRY_DVD_Rip_Aryzs_Properties.part1.rar
http://rapidshare.com/files/190290856/XXRY_DVD_Rip_Aryzs_Properties.part2.rar
http://rapidshare.com/files/190312416/XXRY_DVD_Rip_Aryzs_Properties.part3.rar
http://rapidshare.com/files/190338294/XXRY_DVD_Rip_Aryzs_Properties.part4.rar
http://rapidshare.com/files/190339098/XXRY_DVD_Rip_Aryzs_Properties.part5.rar
http://rapidshare.com/files/190359397/XXRY_DVD_Rip_Aryzs_Properties.part6.rar
http://rapidshare.com/files/190381187/XXRY_DVD_Rip_Aryzs_Properties.part7.rar
http://rapidshare.com/files/190383921/XXRY_DVD_Rip_Aryzs_Properties.part8.rar

No Password

7 Biang Keladi [DVD Rip]

Posted by Filemmelayuretro Admin Tuesday, July 14, 2009 8 ucapan





http://www.sinemamalaysia.com.my/main/index.php?mod=film&p=info&id=289

Language : Malay
Subtitle : None

Sinopsis
Seorang gadis kampong membawa diri setelah dia rimas dikongkong oleh keluarganya. Di sana beliau dituduh berlaku sumbang lalu dipukul teruk oleh bapanya. Di kuala Lumpur dia berteman dengan gadis-gadis liar dan meluangkan masa bersama orang-orang berada lalu menimbulkan rasa iri hati di kalangan teman-temannya.

Pelakon
Norlida Ahmad
Liza Abdullah
Norehan Yaakob
Rose Hariza Sudin
Yusma Laili Md Suhaimi
Aini Noor
Norakma Yunus
Raffi Hussein
M Rajoli
Megat Hashim
Ismail Hutson
Samsuddin Baslah
Aziz Mohamad
Nasir Haslam
Fauzi Zain
Sh Rohana Hayati
Zainor Al Rashid
Osman Zailani
Rohaya Rahman
AR Ayappan

Lagu & Muzik
Omar Taib

Seniman
Azman Ahmad

Cerita & Skrip
Osman Abadi

Penerbit
Zulkifli Haji Ahmad

Pengarah / Lakonlayar
Aziz Sattar


Tujuh Biang Keladi
Format : AVI
File size : 700 MiB
PlayTime : 1h 48mn
Bit rate : 897 Kbps
Video #0
Codec : XviD
Codec/Family : MPEG-4
Bit rate : 770 Kbps
Width : 336 pixels
Height : 256 pixels
Display Aspect ratio : 4/3
Frame rate : 25.000 fps
Resolution : 8 bits
Chroma : 4:2:0
Interlacement : Progressive
Bits/(Pixel*Frame) : 0.355
StreamSize : 595 MiB
Audio #1
Codec : MPEG-1 Audio layer 3
Codec profile : Joint stereo
PlayTime : 1h 48mn
Bit rate : 118 Kbps
Bit rate mode : VBR
Channel(s) : 2 channels
Sampling rate : 48 KHz
Resolution : 16 bits
StreamSize : 91.5 MiB
Writing library : LAME3.97
Encoding settings : ABR

http://rapidshare.com/files/118320476/Tujuh_Biang_Keladi.part1.rar
http://rapidshare.com/files/118659494/Tujuh_Biang_Keladi.part2.rar
http://rapidshare.com/files/118676572/Tujuh_Biang_Keladi.part3.rar
http://rapidshare.com/files/118690595/Tujuh_Biang_Keladi.part4.rar
http://rapidshare.com/files/118973234/Tujuh_Biang_Keladi.part5.rar
http://rapidshare.com/files/120272308/Tujuh_Biang_Keladi.part6.rar
http://rapidshare.com/files/120272309/Tujuh_Biang_Keladi.part7.rar
http://rapidshare.com/files/118310385/Tujuh_Biang_Keladi.part8.rar

No Password

Zombie Kampung Pisang ( 2007 ) [ VCD Rip ]

Posted by Filemmelayuretro Admin Monday, July 13, 2009 0 ucapan



http://www.sinemamalaysia.com.my/main/index.php?mod=film&p=info&id=133

Language : Malay
Subtitle : None

Synopsis
The peace and serenity of Kampung Pisang (Banana Village) is thrown into complete chaos one fateful night….. .The troubles start with the sudden death of Pak Abu, the Kampung’s main Al-Quran reader, who suddenly falls off his bike in front of three kampong men. These three troublemakers are always hanging around the roadside, plucking their guitar and singing (especially during prayer time). The three lads, Husin, Atan and Mat Karan rush Pak Abu’s body back to his house, and quickly tell the great tale to Pak Jabit, the head of the kampong. Pak Jabit goes over to Pak Abu’s house to pay his respects, but suddenly dies when looking at Pak Abu’s prostate body.....

[code]
Zombie Kampung Pisang
Format : AVI
Format/Info : Audio Video Interleave
File size : 700 MiB
Duration : 1h 33mn
Overall bit rate : 1045 Kbps
Video
Format : MPEG-4 Visual
Bit rate : 913 Kbps
Width : 384 pixels
Height : 224 pixels
Display aspect ratio : 16/9
Frame rate : 25.000 fps
Resolution : 8 bits
Colorimetry : 4:2:0
Scan type : Progressive
Audio
Format : MPEG Audio
Format version : Version 1
Format profile : Layer 3
Codec ID : 55
Codec ID/Hint : MP3
Duration : 1h 33mn
Bit rate mode : Variable
Bit rate : 119 Kbps
Minimum bit rate : 128 Kbps
Channel(s) : 2 channels
Sampling rate : 48.0 KHz
Resolution : 16 bits
Writing library : LAME3.97
Encoding settings : ABR


http://rapidshare.com/files/232476800/ZMBIEKGPSNG_VCD_Rip_Aryzs_Properties.part1.rar
http://rapidshare.com/files/232481797/ZMBIEKGPSNG_VCD_Rip_Aryzs_Properties.part2.rar
http://rapidshare.com/files/232491333/ZMBIEKGPSNG_VCD_Rip_Aryzs_Properties.part3.rar
http://rapidshare.com/files/232492830/ZMBIEKGPSNG_VCD_Rip_Aryzs_Properties.part4.rar
http://rapidshare.com/files/232526587/ZMBIEKGPSNG_VCD_Rip_Aryzs_Properties.part5.rar
http://rapidshare.com/files/232533496/ZMBIEKGPSNG_VCD_Rip_Aryzs_Properties.part6.rar
http://rapidshare.com/files/232540313/ZMBIEKGPSNG_VCD_Rip_Aryzs_Properties.part7.rar
http://rapidshare.com/files/232470248/ZMBIEKGPSNG_VCD_Rip_Aryzs_Properties.part8.rar

No Password

Ragam.P.Ramlee.1964.SDTVRip.XviD-arYzs

Posted by Filemmelayuretro Admin Sunday, July 12, 2009 1 ucapan





http://www.sinemamalaysia.com.my/main/index.php?mod=film&p=info&id=551

Language : Malay
Subtitle : None

Synopsis
Film ragam P.Ramlee consists of three segments which is a Musical, Comedy and Drama.

Ramlee & Saloma
P. Ramlee and Saloma presents 7 songs as a solo and a duet which is Hancur Badan DiKandung Tanah, Ku Kehilangan Kanda, Aduh Sayang, Damak, Di Pinggiran, Kuala Lumpur, dan Joget Malaysia.

Minta Nombor Ekor
The story of two friends Ramlee and Raden who are renting out a room. They both dream to get rich fast resulting them in gambling playing 'tiga nombor ekor'. THey have tried so many ways to get a lucky number. At the same time as well they both fall for the same girl, Safiah, who takes care of the gambling shop.

Damaq
In a village, Kenanga is staying with her brother Anggerik. Their parents have long passed away. Anggerik is a trader who travels far to sell his merchandise. Due to his long journeys he is worried for the safety of his sister. Anggerik made up his mind to match his sister with Damaq, a young warrior in the village. Due to Kenanga's natural beauty many others have requested her hand in marriage. One day a young man named Teruna came to Anggerik's house to ask his siter's hand in marriage. Because Anggerik has made a promise to Damaq, he turned down the proposal. Teruna was not satisfied with this and has intentions to steal Kenanga away from Damaq. In the end who will get Kenanga's hand in marriage?


Ragam.P.Ramlee.1964.SDTVRip.XviD-arYzs
Format : AVI
Format/Info : Audio Video Interleave
File size : 350 MiB
Duration : 1h 16mn
Overall bit rate : 643 Kbps
Video
Format : MPEG-4 Visual
Bit rate : 526 Kbps
Width : 528 pixels
Height : 400 pixels
Display aspect ratio : 4/3
Frame rate : 25.000 fps
Resolution : 8 bits
Colorimetry : 4:2:0
Scan type : Progressive
Audio
Format : MPEG Audio
Format version : Version 1
Format profile : Layer 3
Codec ID : 55
Codec ID/Hint : MP3
Duration : 1h 16mn
Bit rate mode : Variable
Bit rate : 104 Kbps
Minimum bit rate : 128 Kbps
Channel(s) : 2 channels
Sampling rate : 48.0 KHz
Resolution : 16 bits
Writing library : LAME3.98r
Encoding settings : ABR

** Cerita Mintak Nombor Ekor TIADA Dalam Versi SDTV Ini Kerana Telah Diharamkan Tayangannya Untuk Tontonan Umum. Harap Maklum.

http://rapidshare.com/files/246272551/Ragam.P.Ramlee.1964.SDTVRip.XviD-arYzs.part1.rar
http://rapidshare.com/files/246272603/Ragam.P.Ramlee.1964.SDTVRip.XviD-arYzs.part2.rar
http://rapidshare.com/files/246272453/Ragam.P.Ramlee.1964.SDTVRip.XviD-arYzs.part3.rar
http://rapidshare.com/files/246272652/Ragam.P.Ramlee.1964.SDTVRip.XviD-arYzs.part4.rar
http://rapidshare.com/files/246317204/Ragam.P.Ramlee.1964.SDTVRip.XviD-arYzs.part5.rar

No Password

Labu Dan Labi ( 1963 ) [Xvid TV]

Posted by Filemmelayuretro Admin Saturday, July 11, 2009 0 ucapan



http://www.sinemamalaysia.com.my/main/index.php?mod=film&p=info&id=431

Language : Malay
Subtitle : English

Synopsis
Haji Bakhil, a miser, have two servants, Labu - the cook, and Labi - the driver. The two of them have secret admiration for Haji Bakhil's beautiful daughter, Manisah. After a hard day's work, Labu and Labi started talking about their girlfriend not knowing that they both admire the same women. During bedtime, they lamented to each other about their life being poor and wondered what would happen if they were rich and famous. Labu pretended that he was a doctor and Labi a magistrate judge


Labu Dan Labi
Format : AVI
Format/Info : Audio Video Interleave
Format/Family : RIFF
File size : 700 MiB
PlayTime : 1h 37mn
Bit rate : 1001 Kbps
StreamSize/String : 9.04 MiB
Video
Codec : XviD
Bit rate : 886 Kbps
Width : 528 pixels
Height : 400 pixels
Display Aspect ratio : 4/3
Frame rate : 25.000 fps
Resolution : 8 bits
Chroma : 4:2:0
Interlacement : Progressive
Audio
Codec : MPEG-1 Audio layer 3
Codec profile : Joint stereo
PlayTime : 1h 37mn
Bit rate mode : VBR
Bit rate : 102 Kbps
Minimum bit rate : 128 Kbps
Channel(s) : 2 channels
Sampling rate : 48.0 KHz
Resolution : 16 bits
StreamSize/String : 71.1 MiB
Writing library : LAME3.97
Encoding settings : ABR

http://rapidshare.com/files/237081423/PRMLEE_LBU_LBI_XVIDTV_Aryzs_Properties.part1.rar
http://rapidshare.com/files/237081383/PRMLEE_LBU_LBI_XVIDTV_Aryzs_Properties.part2.rar
http://rapidshare.com/files/237081424/PRMLEE_LBU_LBI_XVIDTV_Aryzs_Properties.part3.rar
http://rapidshare.com/files/237081378/PRMLEE_LBU_LBI_XVIDTV_Aryzs_Properties.part4.rar
http://rapidshare.com/files/237130009/PRMLEE_LBU_LBI_XVIDTV_Aryzs_Properties.part5.rar
http://rapidshare.com/files/237130272/PRMLEE_LBU_LBI_XVIDTV_Aryzs_Properties.part6.rar
http://rapidshare.com/files/237130607/PRMLEE_LBU_LBI_XVIDTV_Aryzs_Properties.part7.rar
http://rapidshare.com/files/237131077/PRMLEE_LBU_LBI_XVIDTV_Aryzs_Properties.part8.rar

No Password

Jangan.Tinggal.Daku.1971.SDTVRip.XviD-arYzs

Posted by Filemmelayuretro Admin Friday, July 10, 2009 1 ucapan

Jangan.Tinggal.Daku.1971.SDTVRip.XviD-arYzs





http://www.sinemamalaysia.com.my/main/index.php?mod=film&p=info&id=408

Language : Malay
Subtitle : None

Synopsis
Influences from bad company turn Tahir into a hooligan and a gangster, whilst his childhood girlfriend succeeds life and acquires the best education. Tahir is subsequently arrested for murder and then sentenced to death but his childhood friend, Tahirah, who happens to be Inspector Rosley's fiancée, discovers a secret about Tahir.


Jangan.Tinggal.Daku.SDTVRip.XviD-arYzs
Format : AVI
Format/Info : Audio Video Interleave
File size : 700 MiB
Duration : 1h 43mn
Overall bit rate : 946 Kbps
Video
Format : MPEG-4 Visual
Bit rate : 830 Kbps
Width : 640 pixels
Height : 384 pixels
Display aspect ratio : 1.667
Frame rate : 25.000 fps
Resolution : 8 bits
Colorimetry : 4:2:0
Scan type : Progressive
Audio
Format : MPEG Audio
Format version : Version 1
Format profile : Layer 3
Codec ID : 55
Codec ID/Hint : MP3
Duration : 1h 43mn
Bit rate mode : Variable
Bit rate : 103 Kbps
Minimum bit rate : 128 Kbps
Channel(s) : 2 channels
Sampling rate : 48.0 KHz
Resolution : 16 bits
Encoding settings : ABR

http://rapidshare.com/files/248130146/Jangan.Tinggal.Daku.SDTVRip.XviD-arYzs.part1.rar
http://rapidshare.com/files/248161290/Jangan.Tinggal.Daku.SDTVRip.XviD-arYzs.part2.rar
http://rapidshare.com/files/248170141/Jangan.Tinggal.Daku.SDTVRip.XviD-arYzs.part3.rar
http://rapidshare.com/files/248179312/Jangan.Tinggal.Daku.SDTVRip.XviD-arYzs.part4.rar
http://rapidshare.com/files/248179600/Jangan.Tinggal.Daku.SDTVRip.XviD-arYzs.part5.rar
http://rapidshare.com/files/248207909/Jangan.Tinggal.Daku.SDTVRip.XviD-arYzs.part6.rar
http://rapidshare.com/files/248218164/Jangan.Tinggal.Daku.SDTVRip.XviD-arYzs.part7.rar
http://rapidshare.com/files/248227202/Jangan.Tinggal.Daku.SDTVRip.XviD-arYzs.part8.rar

No Password

Rachun Dunia ( 1950 ) [ VCD Rip ]

Posted by Filemmelayuretro Admin Thursday, July 9, 2009 0 ucapan




http://www.sinemamalaysia.com.my/main/index.php?mod=film&p=info&id=540

Language : Malay
Subtitle : None

Synopsis
Jamal the son of Kamal a woodsman owner is married to Aminah. Their marriage is blessed even more with Mardiana their new born. But their happiness was short lived when Jamal started to mix around with Harun and his bad influenced friends. Harun is an insurance representative who also works for Aishah the stunning beauty. Jamal is attracted to Aishah so much that he starts to abandon his family. Jamal had to spend a lot of his money to accompany Aishah who is used to the lifestyle of a rich person. Will Jamal ever repent and come back to his originally family and be the father figure he has been all these while?

[code]
Rachun Dunia
Format : AVI
Format/Info : Audio Video Interleave
File size : 700 MiB
Duration : 1h 44mn
Overall bit rate : 941 Kbps
Video
Format : MPEG-4 Visual
Bit rate : 806 Kbps
Width : 352 pixels
Height : 288 pixels
Display aspect ratio : 1.222
Frame rate : 25.000 fps
Resolution : 8 bits
Colorimetry : 4:2:0
Scan type : Progressive
Audio
Format : MPEG Audio
Format version : Version 1
Format profile : Layer 3
Codec ID : 55
Codec ID/Hint : MP3
Duration : 1h 44mn
Bit rate mode : Constant
Bit rate : 128 Kbps
Channel(s) : 2 channels
Sampling rate : 44.1 KHz
Resolution : 16 bits

http://rapidshare.com/files/232878012/PRMLEE_RCHNDNIA_VCD_Rip_Aryzs_Properties.part1.rar
http://rapidshare.com/files/232877424/PRMLEE_RCHNDNIA_VCD_Rip_Aryzs_Properties.part2.rar
http://rapidshare.com/files/232878004/PRMLEE_RCHNDNIA_VCD_Rip_Aryzs_Properties.part3.rar
http://rapidshare.com/files/232931066/PRMLEE_RCHNDNIA_VCD_Rip_Aryzs_Properties.part4.rar
http://rapidshare.com/files/232924377/PRMLEE_RCHNDNIA_VCD_Rip_Aryzs_Properties.part5.rar
http://rapidshare.com/files/232931089/PRMLEE_RCHNDNIA_VCD_Rip_Aryzs_Properties.part6.rar
http://rapidshare.com/files/232968410/PRMLEE_RCHNDNIA_VCD_Rip_Aryzs_Properties.part7.rar
http://rapidshare.com/files/233060745/PRMLEE_RCHNDNIA_VCD_Rip_Aryzs_Properties.part8.rar

No Password

Dr Rushdi ( 1970 ) [ VCD Rip ]

Posted by Filemmelayuretro Admin 2 ucapan




http://www.sinemamalaysia.com.my/main/index.php?mod=film&p=info&id=477

Language : Malay
Subtitle : None

Synopsis
Dr. Rushdi and his wife Mariana attended a get together held by Rozaiman. As the event was going on Dr. Rushdi received an emergency call from one of his patients. He had to leave his wife behind and attend to his patient. Mariana and Rozaiman gotten to know each other on that night. Since then they had this secret affair everytime Dr. Rushdi attended to his patients and has not attended to his wife's need. One day Dr. Rushdi saw his wife with Rozaiman at a hotel. Being so heartbroken to find out that his wife was cheating on him he decided to kill himself by drinking poison but was luckily stopped by his nurse Muliani. Dr. Rushdi was moved by Muliani's actions. She has actually had feelings towards him all these while. After that Dr. Rushdi divorced his wife and went to stay with Muliani at her house. Rozaiman on the other hand planned to destroy Dr. Rushdi and swindle away his insurance money where he has nominated Mariana as the sole person to his wealth. Will Rozaiman's plan ever destroy Dr. Rushdi?


Dr Rushdi
Format : AVI
Format/Info : Audio Video Interleave
Format/Family : RIFF
File size : 700 MiB
PlayTime : 1h 52mn
Bit rate : 869 Kbps
StreamSize/String : 10.4 MiB
Video
Codec : XviD
Codec/Family : MPEG-4V
Bit rate : 614 Kbps
Width : 576 pixels
Height : 336 pixels
Display Aspect ratio : 16/9
Frame rate : 25.000 fps
Resolution : 8 bits
Chroma : 4:2:0
Interlacement : Progressive
Audio
Codec : MPEG-1 Audio layer 3
Codec profile : Joint stereo
PlayTime : 1h 52mn
Bit rate mode : VBR
Bit rate : 242 Kbps
Channel(s) : 2 channels
Sampling rate : 48.0 KHz
Resolution : 16 bits
Writing library : LAME3.97
Encoding settings : ABR


http://rapidshare.com/files/250782439/drrushdiwaemesul.part1.rar
http://rapidshare.com/files/250782611/drrushdiwaemesul.part2.rar
http://rapidshare.com/files/250782553/drrushdiwaemesul.part3.rar
http://rapidshare.com/files/250782469/drrushdiwaemesul.part4.rar
http://rapidshare.com/files/250782465/drrushdiwaemesul.part5.rar
http://rapidshare.com/files/250843571/drrushdiwaemesul.part6.rar
http://rapidshare.com/files/250843576/drrushdiwaemesul.part7.rar
http://rapidshare.com/files/250843566/drrushdiwaemesul.part8.rar

No Password

Siti Muslihat ( 1962 ) [XVID TV]

Posted by Filemmelayuretro Admin Wednesday, July 8, 2009 1 ucapan








http://www.sinemamalaysia.com.my/main/index.php?mod=film&p=info&id=436

Language : Malay
Subtitle : English

Synopsis
A story about "The Witty Maid" who supported her Royal husband throughout his reign as the King of Indera Permai. Set during the time of Kings and Queens and villages, the story revolves around a beautiful and ordinary maid who later marries the king. "A husband belongs to the wife and the wife belongs to the husband. Only co-operation and understanding between the two will bring happiness and prosperity"


Siti Muslihat
Format : AVI
Format/Info : Audio Video Interleave
Format/Family : RIFF
File size : 700 MiB
PlayTime : 2h 6mn
Bit rate : 772 Kbps
StreamSize/String : 11.7 MiB
Video
Codec : XviD
Codec/Family : MPEG-4V
Bit rate : 656 Kbps
Width : 384 pixels
Height : 288 pixels
Display Aspect ratio : 4/3
Frame rate : 25.000 fps
Resolution : 8 bits
Chroma : 4:2:0
Interlacement : Progressive
Audio
Codec : MPEG-1 Audio layer 3
Codec profile : Joint stereo
PlayTime : 2h 6mn
Bit rate mode : VBR
Bit rate : 103 Kbps
Minimum bit rate : 128 Kbps
Channel(s) : 2 channels
Sampling rate : 48.0 KHz
Resolution : 16 bits
StreamSize/String : 93.5 MiB
Writing library : LAME3.97
Encoding settings : ABR

No Password

http://rapidshare.com/files/230477416/STIMSLHAT_XVIDTV_Aryzs_Properties.part1.rar
http://rapidshare.com/files/230479275/STIMSLHAT_XVIDTV_Aryzs_Properties.part2.rar
http://rapidshare.com/files/230487860/STIMSLHAT_XVIDTV_Aryzs_Properties.part3.rar
http://rapidshare.com/files/230556183/STIMSLHAT_XVIDTV_Aryzs_Properties.part4.rar
http://rapidshare.com/files/230556172/STIMSLHAT_XVIDTV_Aryzs_Properties.part5.rar
http://rapidshare.com/files/230556671/STIMSLHAT_XVIDTV_Aryzs_Properties.part6.rar
http://rapidshare.com/files/230589550/STIMSLHAT_XVIDTV_Aryzs_Properties.part7.rar
http://rapidshare.com/files/230590278/STIMSLHAT_XVIDTV_Aryzs_Properties.part8.rar

Sikit Punya Gila (1982) [DVD Rip]

Posted by Filemmelayuretro Admin 0 ucapan






http://www.sinemamalaysia.com.my/main/index.php?mod=film&p=info&id=299

Language : Malay
Subtitle : None

Sikit Punya Gila
Format : AVI
File size : 699 MiB
Duration : 1h 37mn
Overall bit rate : 1006 Kbps
Video
Format : MPEG-4 Visual
Format profile : Streaming Video@L1
Format settings, BVOP : Yes
Format settings, QPel : No
Format settings, GMC : No warppoints
Format settings, Matrix : Custom
Codec ID : XVID
Codec ID/Hint : XviD
Duration : 1h 37mn
Bit rate : 872 Kbps
Width : 512 pixels
Height : 384 pixels
Display aspect ratio : 4/3
Frame rate : 25.000 fps
Resolution : 8 bits
Colorimetry : 4:2:0
Scan type : Progressive
Bits/(Pixel*Frame) : 0.177
Stream size : 606 MiB (87%)
Audio
Format : MPEG Audio
Format version : Version 1
Format profile : Layer 3
Codec ID : 55
Codec ID/Hint : MP3
Duration : 1h 37mn
Bit rate mode : Variable
Bit rate : 121 Kbps
Minimum bit rate : 128 Kbps
Channel(s) : 2 channels
Sampling rate : 48.0 KHz
Resolution : 16 bits
Stream size : 84.1 MiB (12%)
Alignment : Aligned on interleaves
Interleave, duration : 24 ms (0.60 video frame)
Interleave, preload duration : 555 ms
Writing library : LAME3.97
Encoding settings : ABR

http://rapidshare.com/files/188551725/SKTPNYGLA_DVD_Rip_Aryzs_Properties.part1.rar
http://rapidshare.com/files/188559024/SKTPNYGLA_DVD_Rip_Aryzs_Properties.part2.rar
http://rapidshare.com/files/188560836/SKTPNYGLA_DVD_Rip_Aryzs_Properties.part3.rar
http://rapidshare.com/files/188576839/SKTPNYGLA_DVD_Rip_Aryzs_Properties.part4.rar
http://rapidshare.com/files/189166756/SKTPNYGLA_DVD_Rip_Aryzs_Properties.part5.rar
http://rapidshare.com/files/189171991/SKTPNYGLA_DVD_Rip_Aryzs_Properties.part6.rar
http://rapidshare.com/files/189223349/SKTPNYGLA_DVD_Rip_Aryzs_Properties.part7.rar
http://rapidshare.com/files/189223383/SKTPNYGLA_DVD_Rip_Aryzs_Properties.part8.rar

No Password

Sesejuk Air Mata Ibu [DVD Rip]

Posted by Filemmelayuretro Admin 0 ucapan





Language : Malay
Subtitle : None

Sesejuk Air Mata Ibu.avi
Format : AVI
File size : 700 MiB
PlayTime : 1h 41mn
Bit rate : 960 Kbps
Video #0
Codec : XviD
Codec/Family : MPEG-4
Bit rate : 834 Kbps
Width : 608 pixels
Height : 288 pixels
Display Aspect ratio : 2.2
Frame rate : 25.000 fps
Resolution : 8 bits
Chroma : 4:2:0
Interlacement : Progressive
Bits/(Pixel*Frame) : 0.189
StreamSize : 602 MiB
Audio #1
Codec : MPEG-1 Audio layer 3
Codec profile : Joint stereo
PlayTime : 1h 41mn
Bit rate : 118 Kbps
Bit rate mode : VBR
Channel(s) : 2 channels
Sampling rate : 48 KHz
Resolution : 16 bits
StreamSize : 85.2 MiB
Writing library : LAME3.97
Encoding settings : ABR

http://rapidshare.com/files/123330541/SSAMI_DVD_Rip_Aryzs.part1.rar
http://rapidshare.com/files/123330498/SSAMI_DVD_Rip_Aryzs.part2.rar
http://rapidshare.com/files/123359086/SSAMI_DVD_Rip_Aryzs.part3.rar
http://rapidshare.com/files/123362704/SSAMI_DVD_Rip_Aryzs.part4.rar
http://rapidshare.com/files/123380011/SSAMI_DVD_Rip_Aryzs.part5.rar
http://rapidshare.com/files/123384058/SSAMI_DVD_Rip_Aryzs.part6.rar
http://rapidshare.com/files/123399607/SSAMI_DVD_Rip_Aryzs.part7.rar
http://rapidshare.com/files/122971770/SSAMI_DVD_Rip_Aryzs.part8.rar

No Password

Prebet Lapok ( 1979 ) [ VCD Rip ]

Posted by Filemmelayuretro Admin Monday, July 6, 2009 1 ucapan



http://www.sinemamalaysia.com.my/main/index.php?mod=film&p=info&id=388

Language : Malay
Subtitle : None

Synopsis
Badul, mischievous and unemployed is fond of teasing the girls in his village. He is finally persuaded to join the army. While undergoing military training, he fills the camp with his wild antics. Unknown to him, a girl is attracted to him.

[code]
Prebet Lapok.avi
Format : AVI
Format/Info : Audio Video Interleave
Format/Family : RIFF
File size : 700 MiB
PlayTime : 1h 58mn
Bit rate : 824 Kbps
StreamSize/String : 10.8 MiB
Video
Codec : XviD
Codec/Family : MPEG-4V
Bit rate : 709 Kbps
Width : 480 pixels
Height : 272 pixels
Display Aspect ratio : 16/9
Frame rate : 23.976 fps
Resolution : 8 bits
Chroma : 4:2:0
Interlacement : Progressive
Audio
Codec : MPEG-1 Audio layer 3
Codec profile : Joint stereo
PlayTime : 1h 58mn
Bit rate mode : VBR
Bit rate : 102 Kbps
Minimum bit rate : 128 Kbps
Channel(s) : 2 channels
Sampling rate : 48.0 KHz
Resolution : 16 bits
StreamSize/String : 86.7 MiB
Writing library : LAME3.97
Encoding settings : ABR


http://rapidshare.com/files/231541454/PRBTLPOK_VCD_Rip_Aryzs_Properties.part1.rar
http://rapidshare.com/files/231541444/PRBTLPOK_VCD_Rip_Aryzs_Properties.part2.rar
http://rapidshare.com/files/231545792/PRBTLPOK_VCD_Rip_Aryzs_Properties.part3.rar
http://rapidshare.com/files/231601251/PRBTLPOK_VCD_Rip_Aryzs_Properties.part4.rar
http://rapidshare.com/files/231597029/PRBTLPOK_VCD_Rip_Aryzs_Properties.part5.rar
http://rapidshare.com/files/231574380/PRBTLPOK_VCD_Rip_Aryzs_Properties.part6.rar
http://rapidshare.com/files/231923598/PRBTLPOK_VCD_Rip_Aryzs_Properties.part7.rar
http://rapidshare.com/files/231541446/PRBTLPOK_VCD_Rip_Aryzs_Properties.part8.rar
No Password

Putera (1993) VCD Rip

Posted by Filemmelayuretro Admin Sunday, July 5, 2009 0 ucapan





http://www.filemkita.com/filem/p/putera_01.html

Language : Malay
Subtitle : None

Putera
Format : AVI
File size : 476 MiB
PlayTime : 1h 51mn
Bit rate : 596 Kbps
StreamSize/String : 4.06 MiB
Writing library : MPlayer
Video
Codec : DivX 5
Bit rate : 463 Kbps
Width : 352 pixels
Height : 240 pixels
Display Aspect ratio : 4/3
Frame rate : 23.976 fps
Resolution : 8 bits
Chroma : 4:2:0
Interlacement : Progressive
Bits/(Pixel*Frame) : 0.229
StreamSize/String : 370 MiB
Writing library : Lavc51.50.1
Audio
Codec : MPEG-1 Audio layer 3
Codec profile : Joint stereo
PlayTime : 1h 51mn
Bit rate mode : CBR
Bit rate : 128 Kbps
Channel(s) : 2 channels
Sampling rate : 44.1 KHz
Resolution : 16 bits
StreamSize/String : 102 MiB

http://rapidshare.com/files/188507633/PTRA_VCD_Rip_Aryzs_Properties.part1.rar
http://rapidshare.com/files/188507553/PTRA_VCD_Rip_Aryzs_Properties.part2.rar
http://rapidshare.com/files/188537621/PTRA_VCD_Rip_Aryzs_Properties.part3.rar
http://rapidshare.com/files/188529197/PTRA_VCD_Rip_Aryzs_Properties.part4.rar
http://rapidshare.com/files/188537537/PTRA_VCD_Rip_Aryzs_Properties.part5.rar

No Password



Language : Malay
Subtitle : None

Synopsis
Mengisahkan Sebuah rumah yang berhantu selepas penghuninya mati dibunuh. Kisah pembunuhan yang masih misteri membuatkan seorang penulis bebas membawa keluarganya untuk tinggal di dalam rumah berkenaan sambil mencuba untuk merungkai misteri kematiannya. Pelbagai kejadian aneh telah berlaku semasa mereka berada di dalam rumah berkenaan......

Penunggu
Format : AVI
Format/Info : Audio Video Interleave
Format/Family : RIFF
File size : 700 MiB
PlayTime : 1h 18mn
Bit rate : 1253 Kbps
StreamSize/String : 7.22 MiB
Video
Codec : XviD
PlayTime : 1h 18mn
Bit rate : 1138 Kbps
Width : 560 pixels
Height : 416 pixels
Display Aspect ratio : 4/3
Frame rate : 25.000 fps
Resolution : 8 bits
Chroma : 4:2:0
Interlacement : Progressive
Audio
Codec : MPEG-1 Audio layer 3
Codec profile : Joint stereo
PlayTime : 1h 18mn
Bit rate mode : VBR
Bit rate : 102 Kbps
Minimum bit rate : 128 Kbps
Channel(s) : 2 channels
Sampling rate : 48.0 KHz
Resolution : 16 bits
StreamSize/String : 57.0 MiB
Writing library : LAME3.97
Encoding settings : ABR

http://rapidshare.com/files/221852273/PNNGGU_XVIDTV_Prima_Aryzs_Properties.part1.rar
http://rapidshare.com/files/221852286/PNNGGU_XVIDTV_Prima_Aryzs_Properties.part2.rar
http://rapidshare.com/files/221874797/PNNGGU_XVIDTV_Prima_Aryzs_Properties.part3.rar
http://rapidshare.com/files/221876285/PNNGGU_XVIDTV_Prima_Aryzs_Properties.part4.rar
http://rapidshare.com/files/221876276/PNNGGU_XVIDTV_Prima_Aryzs_Properties.part5.rar
http://rapidshare.com/files/221895752/PNNGGU_XVIDTV_Prima_Aryzs_Properties.part6.rar
http://rapidshare.com/files/221896155/PNNGGU_XVIDTV_Prima_Aryzs_Properties.part7.rar
http://rapidshare.com/files/221896287/PNNGGU_XVIDTV_Prima_Aryzs_Properties.part8.rar

No Password

Prebet Lapok ( 1979 ) [ VCD Rip ]

Posted by Filemmelayuretro Admin Saturday, July 4, 2009 0 ucapan



Language : Malay
Subtitle : None

Synopsis
Badul, mischievous and unemployed is fond of teasing the girls in his village. He is finally persuaded to join the army. While undergoing military training, he fills the camp with his wild antics. Unknown to him, a girl is attracted to him.


Prebet Lapok.avi
Format : AVI
Format/Info : Audio Video Interleave
Format/Family : RIFF
File size : 700 MiB
PlayTime : 1h 58mn
Bit rate : 824 Kbps
StreamSize/String : 10.8 MiB
Video
Codec : XviD
Codec/Family : MPEG-4V
Bit rate : 709 Kbps
Width : 480 pixels
Height : 272 pixels
Display Aspect ratio : 16/9
Frame rate : 23.976 fps
Resolution : 8 bits
Chroma : 4:2:0
Interlacement : Progressive
Audio
Codec : MPEG-1 Audio layer 3
Codec profile : Joint stereo
PlayTime : 1h 58mn
Bit rate mode : VBR
Bit rate : 102 Kbps
Minimum bit rate : 128 Kbps
Channel(s) : 2 channels
Sampling rate : 48.0 KHz
Resolution : 16 bits
StreamSize/String : 86.7 MiB
Writing library : LAME3.97
Encoding settings : ABR

http://rapidshare.com/files/231541454/PRBTLPOK_VCD_Rip_Aryzs_Properties.part1.rar
http://rapidshare.com/files/231541444/PRBTLPOK_VCD_Rip_Aryzs_Properties.part2.rar
http://rapidshare.com/files/231545792/PRBTLPOK_VCD_Rip_Aryzs_Properties.part3.rar
http://rapidshare.com/files/231601251/PRBTLPOK_VCD_Rip_Aryzs_Properties.part4.rar
http://rapidshare.com/files/231597029/PRBTLPOK_VCD_Rip_Aryzs_Properties.part5.rar
http://rapidshare.com/files/231574380/PRBTLPOK_VCD_Rip_Aryzs_Properties.part6.rar
http://rapidshare.com/files/231923598/PRBTLPOK_VCD_Rip_Aryzs_Properties.part7.rar
http://rapidshare.com/files/231541446/PRBTLPOK_VCD_Rip_Aryzs_Properties.part8.rar
No Password

ShoutMix


ShoutMix chat widget

statistik

Blogumulus by Roy Tanck and Amanda FazaniInstalled by CahayaBiru.com

Followers

Divx movies for full satisfaction

Divx movies for full satisfaction

disclaimer

Disclaimer None of the files shown here are actually hosted or transmitted by this server. The links are provided solely by this site's users. The administrator of this site (filemmelayuretro) cannot be held responsible for what its users post, or any other actions of its users. You may not use this site to distribute or download any material when you do not have the legal rights to do so. It is your own responsibility to adhere to these terms.

we are fully guaranty

we are fully guaranty